Всегда рабочее зеркало без VPN и Proxy просто перед .vidak.icu напиши любое слово или цифру, Пример http://xob3.vidak.icu

MVO

Лицензия

1 сезон

1

1 сезон

iTunes

1 сезон

13

1 сезон

Deluxe

pack

Рекомендуем

Пиратка

30

ВАЖНО

RePack

MK11

RePack

jed

RePack

fifa19

RePack

RDR2

RePack

NEED FOR SPEED™ PAYBACK

Кинопоиск HD

6 сезон

 Острые козырьки 6 сезон

Все сериалы

все сериалы на PB.wtf

RePack

FAR CRY 5
  
Magnet ссылка

Послесвадебный разгром / A Few Less Men (Марк Лампрелл) [2016, комедия, BDRip 1080p] DUB [iTunes] pb.wtf

Послесвадебный разгром через торрент pb.wtf

Размер: 6.79 GB | Добавлен: 5 лет назад | Торрент скачан:120 раз
Смотреть онлайн Послесвадебный разгром | Скачать    Ребята, помогите собрать деньги на оплату серверов!!!

29-06-2017 20:19 Послесвадебный разгром Скачать торрент  

Послесвадебный разгром / A Few Less Men
Год выпуска: 2016
Страна: Австралия
Жанр: комедия
Продолжительность: 01:31:59
Перевод: Дубляж [iTunes]
Субтитры: отсутствуют

Режиссер: Марк Лампрелл

rating

В ролях:

Дакре Монтгомери, Завьер Сэмюэл, Крис Маршалл, Райан Корр, Кевин Бишоп, Саша Хорлер, Линетт Каррен, Дебора Мэйлман

Описание:

Продолжение похождений бедовых друзей-англичан в Австралии. На сей раз незадачливой троице Дэвиду, Тому и Грэму предстоит через всю страну перевозить гроб с покойным приятелем после того, как их самолёт делает непредвиденную высадку в глухой глубинке...

Качество: BDRip 1080p
Формат: MKV
Видео кодек: H.264
Аудио кодек: AC3/DTS

Видео: 1920x800 (2.40:1), 23.976 fps, MPEG-4 AVC ~8 670 kbps avg
Аудио#1: 48.0 kHz, AC3 Dolby Digital, 3/2 (L,C,R,l,r) + LFE ch, ~384 kbps | RUS / DUB
Аудио#2: 48.0 kHz, Digital Theater Systems, 3/2 (L,C,R,l,r) + LFE ch, ~1509 kbps | Eng
скриншот   скриншот   скриншот  

Общее
Уникальный идентификатор : 234135315037804728511412572236798653743 (0xB024D24909F36D66A061E4CD962E752F)
Полное имя : D:\A.Few.Less.Men.2017.D.BDRip.1080p.mkv
Формат : Matroska
Версия формата : Version 2
Размер файла : 6,79 Гбайт
Продолжительность : 1 ч. 31 м.
Общий поток : 10,6 Мбит/сек
Дата кодирования : UTC 2017-06-29 07:38:19
Программа кодирования : mkvmerge v8.5.2 ('Crosses') 32bit
Библиотека кодирования : libebml v1.3.3 + libmatroska v1.4.4

Видео
Идентификатор : 1
Формат : AVC
Формат/Информация : Advanced Video Codec
Профиль формата : High@L4.1
Параметр CABAC формата : Да
Параметр ReFrames формата : 5 кадров
Идентификатор кодека : V_MPEG4/ISO/AVC
Продолжительность : 1 ч. 31 м.
Битрейт : 8670 Кбит/сек
Ширина : 1920 пикселей
Высота : 800 пикселей
Соотношение сторон : 2,40:1
Режим частоты кадров : Постоянный
Частота кадров : 23,976 (24000/1001) кадра/сек
Цветовое пространство : YUV
Субдискретизация насыщенности : 4:2:0
Битовая глубина : 8 бит
Тип развёртки : Прогрессивная
Бит/(Пиксели*Кадры) : 0.235
Размер потока : 5,57 Гбайт (82%)
Библиотека кодирования : x264 core 150 r2833 df79067
Настройки программы : cabac=1 / ref=5 / deblock=1:0:0 / analyse=0x3:0x133 / me=umh / subme=8 / psy=1 / psy_rd=1.00:0.00 / mixed_ref=1 / me_range=16 / chroma_me=1 / trellis=1 / 8x8dct=1 / cqm=0 / deadzone=21,11 / fast_pskip=0 / chroma_qp_offset=-2 / threads=12 / lookahead_threads=2 / sliced_threads=0 / nr=0 / decimate=1 / interlaced=0 / bluray_compat=0 / constrained_intra=0 / bframes=3 / b_pyramid=2 / b_adapt=1 / b_bias=0 / direct=1 / weightb=1 / open_gop=0 / weightp=2 / keyint=250 / keyint_min=23 / scenecut=40 / intra_refresh=0 / rc_lookahead=40 / rc=2pass / mbtree=1 / bitrate=8670 / ratetol=1.0 / qcomp=0.60 / qpmin=0 / qpmax=69 / qpstep=4 / cplxblur=20.0 / qblur=0.5 / ip_ratio=1.40 / aq=1:1.00
Язык : English
Default : Да
Forced : Нет

Аудио #1
Идентификатор : 2
Формат : AC-3
Формат/Информация : Audio Coding 3
Расширение режима : CM (complete main)
Параметр Endianness формата : Big
Идентификатор кодека : A_AC3
Продолжительность : 1 ч. 31 м.
Вид битрейта : Постоянный
Битрейт : 384 Кбит/сек
Каналы : 6 каналов
Расположение каналов : Front: L C R, Side: L R, LFE
Частота : 48,0 КГц
Частота кадров : 31,250 кадров/сек (1536 spf)
Метод сжатия : С потерями
Размер потока : 253 Мбайт (4%)
Язык : Russian
Default : Да
Forced : Нет

Аудио #2
Идентификатор : 3
Формат : DTS
Формат/Информация : Digital Theater Systems
Режим : 16
Параметр Endianness формата : Big
Идентификатор кодека : A_DTS
Продолжительность : 1 ч. 31 м.
Вид битрейта : Постоянный
Битрейт : 1509 Кбит/сек
Каналы : 6 каналов
Расположение каналов : Front: L C R, Side: L R, LFE
Частота : 48,0 КГц
Частота кадров : 93,750 кадра/сек (512 spf)
Битовая глубина : 16 бит
Метод сжатия : С потерями
Размер потока : 993 Мбайт (14%)
Язык : English
Default : Нет
Forced : Нет

pb.wtf



Скачать Послесвадебный разгром через торрент http://img11.lostpic.net/2017/06/28/c8217c7662d5f42417bc3a6d3a0b5106.png Скачать, смотреть онлайн Послесвадебный разгром бесплантно в хорошем качестве Описание: Продолжение похождений бедовых друзей-англичан в Австралии. На сей раз незадачливой троице Дэвиду, Тому и Грэму предстоит через ... 8.2 10 5
Торрент: Зарегистрирован [2017-06-29 20:19] · скачан: 120 раз
Статус: T временная
Размер: 6.79 GB
Как cкачать? Как скачать Послесвадебный разгром через торрент | UTorrent

% Раздел Тема Автор DL S | L
Фильмы 2017 [DVDrip, WEB-DLRip, HDrip] (DUB, MVO) [ 1.53 GB ] Послесвадебный разгром / A Few Less Men [2017 WEB-DLRip-AVC] bober100 Скачать
1 | 0
Фильмы (WEB-DL 720p, 1080p) [ 3.37 GB ] Послесвадебный разгром / A Few Less Men [2017 WEB-DL 1080p] DUB + MVO bober100 Скачать
1 | 0
T Релизы по Парсеру [Игры, Сериалы и Фильмы и другое...] [ 1.46 GB ] Послесвадебный разгром / A Few Less Men [2017 WEB-DLRip] / Sherif Скачать
1 | 0

28-11-2019 20:33  

Отключить всю рекламу на сайте

01-03-2018 16:02 Послесвадебный разгром Скачать торрент  

такой мути я еще не виделpb.wtf



    Дорогой пользователь! Огромная просьба, поблагодарите релизера, оцените раздачу и оставьте свои комментарий, если Вы скачали Послесвадебный разгром через торрент бесплатно!
    Комментировать посты могут только пользователи прошедшие не сложную регистрацию
    Показать сообщения:    

    Послесвадебный разгром через торрент
    Скачать бесплатно Послесвадебный разгром
    Послесвадебный разгром скачать торрент
    Послесвадебный разгром смотреть онлайн
    Cкачать фильм Послесвадебный разгром бесплатно
    Послесвадебный разгром скачать торрент в хорошем качестве
    Послесвадебный разгром смотреть онлайн бесплатно в хорошем качестве


    Вы не можете начинать темы
    Вы не можете отвечать на сообщения
    Вы не можете редактировать свои сообщения
    Вы не можете удалять свои сообщения
    Вы не можете голосовать в опросах
    Вы не можете прикреплять файлы к сообщениям
    Вы можете скачивать файлы