Ссылка на приватное зеркало нашего сайта всего за 1$. Внимание количество ограничено!!!

2 сезон

iTunes

1 сезон

1

2 сезон

2 сезон

iTunes

1 сезон

RePack

30

Ultimate

ВАЖНО

ИГРА 18+

pack

RePack

MK11
pack

Забери бонус

RePack

jed

!!Акция!!

Alien_Rage

RePack

fifa19

RePack

Assassins Creed: Odyssey

RePack

NEED FOR SPEED™ PAYBACK

4 сезон

9 сезон

Бесстыжие 9 сезон

Все сериалы

все сериалы на PB.wtf

RePack

FAR CRY 5
  

12 обезьян / 12 Monkeys / Сезон: 3 / Серии 1-10 из 10 (Дэвид Гроссман / David Grossman, Магнус Мартенс / Magnus Martens, Майкл Ваксман / Michael Waxman) [2017, США, фантастика, триллер, драма, WEBRip-AVC] [BaibaKo] pb.wtf

12 обезьян через торрент pb.wtf

Размер: 7.96 GB | Добавлен: 3 года 2 мес. назад | Торрент скачан:11 раз
Скачать  

30-06-2017 01:23 12 обезьян Скачать торрент  

12 обезьян / 12 Monkeys
«Изменить историю»


  • Год выпуска: 2017
  • Страна: США
  • Жанр: фантастика, триллер, драма, детектив, приключения
  • Продолжительность: 00:43:21 (Серия)
  • Перевод: Профессиональный многоголосый [BaibaKo]
  • Режиссер: Дэвид Гроссман / David Grossman, Магнус Мартенс / Magnus Martens, Майкл Ваксман / Michael Waxman
  • В ролях:

    Аарон Стэнфорд (James Cole), Аманда Шулл (Dr. Cassandra Railly), Кирк Асеведо (José Ramse), Барбара Зукова (Katarina Jones), Эмили Хэмпшир (Jennifer Goines), Ной Бин (Aaron Marker), Том Нунен (Pallid Man), Эндрю Гиллис (Dr. Adler), Тодд Стэшвик (Deacon), Демор Барнс (Whitley), Алисен Даун (Striking Woman), Мюррэй Фюрроу (Dr. Lasky)


  • 2043 год. Смертельный вирус уничтожил почти все население планеты. Те, кому посчастливилось выжить, ютятся под землей, но ресурсы на исходе, и в преддверии апокалипсиса атмосфера в обществе накаляется. Чтобы исправить ситуацию, группа ученых отправляет в прошлое заключенного по имени Джеймс Коул (Aaron Stanford / Аарон Стэнфорд). За успешное выполнение миссии ему обещано прощение всех преступлений. Единственной зацепкой Джеймса в 2015 году является доктор Кассандра Рейли (Amanda Schull / Аманда Шулл), которая в момент знакомства с главным героем как раз возвращалась со своей лекции, посвященной опасности вирусов. Для начала Коулу нужно доказать, что он пришел из будущего, а затем уговорить девушку помочь найти человека, причастного к распространению опасной заразы. Так начинается смертельная гонка за надеждой на выживание, в которой герою предстоит раскрыть тайну «12 обезьян», противостоять влиятельным злодеям и в конечном счете устранить причину зарождения тотальной эпидемии.
  • Рейтинг:



  • Качество: WEBRip-AVC
  • Формат: :MPEG-4
  • Видео кодек: AVC
  • Аудио кодек: AC3
  • Видео: 1024x576 (16:9), 1839 kbps, 23,976 fps, 0,130 bpp
  • Аудио №1: русский / 5.1 / 48 kHz / 384 kbps / 16 bit |[BaibaKo]|
  • Аудио №2: английский / 5.1 / 48 kHz / 384 kbps / 16 bit
  • Релиз от: GEKADOL

    Внимание! Раздача ведётся путём добавления новых серий; при каждом добавлении создаётся новый торрент. Чтобы начать докачку новой серии, пользователям необходимо сделать следующее:
    (1) остановить скачивание,
    (2) удалить старый торрент у себя из клиента (старые серии удалять не надо),
    (3) скачать новый торрент и запустить его у себя в клиенте вместо старого, при этом указать клиенту путь в старую папку куда и должно происходить скачивание новых серий.
    Ваш клиент при этом должен произвести хеширование (проверку) старой папки (если не производит сам - помогите ему сделать это), и будет докачивать только те серии которых у вас ещё нет. Старые серии при этом не удаляются, а продолжают раздаваться!
    Eсли вы уже удалили старые серии, то предотвратить повторную закачку старых серий можно, отжав галочку в соответствующих местах при запуске нового торрента. По возможности, желательно не удалять старые серии как можно дольше чтобы релизёр не столько продолжал раздавать старые серии, а смог сконцентрироваться на новых.

    General
    Complete name : F:\12 обезьян (12 Monkeys 3)\12.Monkeys.s03e01.WEBRip-AVC.Rus.Eng.BaibaKo.tv.mp4
    Format : MPEG-4
    Format profile : Base Media
    Codec ID : isom (isom/iso2/avc1/mp41)
    File size : 810 MiB
    Duration : 43 min
    Overall bit rate : 2 612 kb/s
    Writing application : XviD4PSP 7.0.391 DAILY
    HDVideo : Yes
    encoding_info : MATROSKA / WEBM > MP4 Произвольный / H264 > X264 CBR 2000kbps HQ / AC3 > AC3 CBR 384kbps / AC3 > AC3 CBR 384kbps

    Video
    ID : 1
    Format : AVC
    Format/Info : Advanced Video Codec
    Format profile : High@L3.1
    Format settings, CABAC : Yes
    Format settings, ReFrames : 4 frames
    Codec ID : avc1
    Codec ID/Info : Advanced Video Coding
    Duration : 43 min
    Bit rate : 1 839 kb/s
    Nominal bit rate : 2 000 kb/s
    Width : 1 024 pixels
    Height : 576 pixels
    Display aspect ratio : 16:9
    Frame rate mode : Constant
    Frame rate : 23.976 (24000/1001) FPS
    Color space : YUV
    Chroma subsampling : 4:2:0
    Bit depth : 8 bits
    Scan type : Progressive
    Bits/(Pixel*Frame) : 0.130
    Stream size : 570 MiB (70%)
    Writing library : x264 core 150 r2833M df79067
    Encoding settings : cabac=1 / ref=3 / deblock=1:-1:-1 / analyse=0x3:0x133 / me=hex / subme=7 / psy=1 / psy_rd=1.00:0.20 / mixed_ref=1 / me_range=16 / chroma_me=1 / trellis=1 / 8x8dct=1 / cqm=0 / deadzone=21,11 / fast_pskip=1 / chroma_qp_offset=-3 / threads=5 / lookahead_threads=1 / sliced_threads=0 / nr=0 / decimate=1 / interlaced=0 / bluray_compat=0 / constrained_intra=0 / bframes=3 / b_pyramid=2 / b_adapt=2 / b_bias=0 / direct=3 / weightb=1 / open_gop=0 / weightp=2 / keyint=230 / keyint_min=23 / scenecut=40 / intra_refresh=0 / rc_lookahead=40 / rc=cbr / mbtree=1 / bitrate=2000 / ratetol=1.0 / qcomp=0.60 / qpmin=0 / qpmax=69 / qpstep=4 / vbv_maxrate=2000 / vbv_bufsize=1428 / nal_hrd=none / filler=0 / ip_ratio=1.40 / aq=1:1.00
    Color range : Limited
    Color primaries : BT.709
    Transfer characteristics : BT.709
    Matrix coefficients : BT.709

    Audio #1
    ID : 2
    Format : AC-3
    Format/Info : Audio Coding 3
    Mode extension : CM (complete main)
    Format settings, Endianness : Big
    Codec ID : ac-3
    Duration : 43 min
    Bit rate mode : Constant
    Bit rate : 384 kb/s
    Channel(s) : 6 channels
    Channel positions : Front: L C R, Side: L R, LFE
    Sampling rate : 48.0 kHz
    Frame rate : 31.250 FPS (1536 spf)
    Bit depth : 16 bits
    Compression mode : Lossy
    Stream size : 119 MiB (15%)
    Language : Russian
    Default : Yes
    Alternate group : 1

    Audio #2
    ID : 3
    Format : AC-3
    Format/Info : Audio Coding 3
    Mode extension : CM (complete main)
    Format settings, Endianness : Big
    Codec ID : ac-3
    Duration : 43 min
    Bit rate mode : Constant
    Bit rate : 384 kb/s
    Channel(s) : 6 channels
    Channel positions : Front: L C R, Side: L R, LFE
    Sampling rate : 48.0 kHz
    Frame rate : 31.250 FPS (1536 spf)
    Bit depth : 16 bits
    Compression mode : Lossy
    Stream size : 119 MiB (15%)
    Language : English
    Default : No
    Alternate group : 1
    В научно-фантастической драме «12 обезьян» есть все, что так ценят поклонники этого жанра: стройная концепция, основанная на сюжете одноименного фильма Терри Гиллиама, путешествия во времени, атмосфера неумолимо надвигающегося апокалипсиса и тайна, которую зрители попытаются разгадать вместе с главным героем. Стоит отметить, что создатели сериала не ограничились простой адаптацией известной киноленты под маленькие экраны. Команда за кадром приложила немало сил для того, чтобы новое шоу получилось достаточно оригинальным, заинтересовало зрителей и при этом сохранило дух культовой антиутопии Гиллиама.



    Скриншоты:
    скриншот   скриншот   скриншот   скриншот   скриншот   скриншот   скриншот  
    скриншот  

    Раздача ведётся путём добавления новых серий. Добавлена 10 серия (04.09.2017).Просьба перекачать торрент файл.

    pb.wtf



  • Скачать 12 обезьян через торрент http://pic1.kartinco.top/images/11/16xw1.jpg Скачать фильм 12 обезьян через торрент бесплантно в хорошем качестве qw.png 2043 год. Смертельный вирус уничтожил почти все население планеты. Те, кому посчастливилось выжить, ютятся под землей, но ресурсы ... 9.3 10 8
    Info! Золотая раздача, скачанное не засчитывается.
    Торрент: Зарегистрирован [2017-09-04 00:23] · скачан: 11 раз
    Статус: √ проверено
    Размер: 7.96 GB
    Как cкачать? Как скачать 12 обезьян через торрент | qTorrent



    Последний раз редактировалось: GEKADOL (2017-09-04 00:28), всего редактировалось 14 раз(а)

    28-11-2019 20:33  

    Отключить всю рекламу на сайте

    30-06-2017 09:57 12 обезьян Скачать торрент  

    Уже был весь сезон. Посмотрели.Спасибо.pb.wtf



    30-06-2017 12:29 12 обезьян Скачать торрент  

    petr20 писал(а):

    Уже был весь сезон. Посмотрели.Спасибо.

    Знаю) Байбаки только начали!pb.wtf



    01-07-2017 09:21 12 обезьян Скачать торрент  

    1 сезон был очень даже, на втором забросил..как-то все скатилось в нудотуpb.wtf



      Дорогой пользователь! Огромная просьба, поблагодарите релизера, оцените раздачу и оставьте свои комментарий, если Вы скачали 12 обезьян через торрент бесплатно! Внесите свою лепту в развитие PiratBit!
      Комментировать посты могут только пользователи прошедшие не сложную регистрацию
      Показать сообщения:    

      12 обезьян через торрент
      Скачать бесплатно 12 обезьян
      12 обезьян скачать торрент
      12 обезьян смотреть онлайн
      Cкачать фильм 12 обезьян бесплатно
      12 обезьян скачать торрент в хорошем качестве
      12 обезьян смотреть онлайн бесплатно в хорошем качестве


      Вы не можете начинать темы
      Вы не можете отвечать на сообщения
      Вы не можете редактировать свои сообщения
      Вы не можете удалять свои сообщения
      Вы не можете голосовать в опросах
      Вы не можете прикреплять файлы к сообщениям
      Вы можете скачивать файлы