Ссылка на приватное зеркало нашего сайта всего за 1$. Внимание количество ограничено!!!

2 сезон

iTunes

1 сезон

1

2 сезон

2 сезон

iTunes

1 сезон

RePack

30

Новинка

ВАЖНО

ИГРА 18+

pack

RePack

MK11
pack

Забери бонус

RePack

jed

!!Акция!!

Alien_Rage

RePack

fifa19

RePack

Assassins Creed: Odyssey

RePack

NEED FOR SPEED™ PAYBACK

4 сезон

9 сезон

Бесстыжие 9 сезон

Все сериалы

все сериалы на PB.wtf

RePack

FAR CRY 5
  

Блеск / GLOW / Сезон: 1 / Серии: 1-10 (10) (Кейт Дэннис, Тодд Фьельстед, Тристрам Шапиро) [2017, Драма, комедия, спорт, WEBRip 720p] [MVO] (Jaskier) pb.wtf

Блеск через торрент pb.wtf

Размер: 17.67 GB | Добавлен: 3 года 4 мес. назад | Торрент скачан:71 раз
Скачать  

30-06-2017 12:51 Блеск Скачать торрент  

Блеск | GLOW Год выпуска: 2017
Страна: США
Жанр: Драма, комедия, спорт
Продолжительность: ~ 00:37:00
Перевод: Профессиональный (многоголосый закадровый) | Jaskier

Режиссёр: Кейт Дэннис, Тодд Фьельстед, Тристрам Шапиро

В ролях: Эллен Вонг, Элисон Бри, Ким Гейтвуд, Бетти Джилпин, Ребекка Джонсон, Сунита Мани, Сидель Грэйнджер, Гэйл Ранкин и др.

Описание: История безработной актрисы из Лос-Анджелеса по имени Рут, которая в отчаянной попытке самореализации решает сняться в сериале о женщинах-рестлерах и оказывается в мире пышных причёсок, блеска и спандекса.

|

Качество: WEBRip 720p
Формат: MKV
Видео: 1280x640 (2,000) | X264/MPEG4-AVC | ~7100 kbps | 23.976 fps
Аудио 1: AC3 | 48 KHz | 5.1 (Front: L С R Side: L R) + LFE | ~384 kbps [RUS]
Аудио 2: AC3 | 48 KHz | 5.1 (Front: L С R Side: L R) + LFE | ~384 kbps [ENG]
Субтитры: английские
General
Unique ID : 235798331627138281325369989647144151294 (0xB1651B55644E33D2B1431FE6522D68FE)
Complete name : E:\GLOW. Season 1 (WEBRip l 720p l Jaskier)\GLOW.S01E01.Pilot.720p.NF.WEBRip.DD5.1.x264-Jaskier.mkv
Format : Matroska
Format version : Version 2
File size : 2.05 GiB
Duration : 37mn 10s
Overall bit rate : 7 895 Kbps
Encoded date : UTC 2017-07-04 06:18:42
Writing application : mkvmerge v7.8.0 ('River Man') 32bit built on Apr 3 2015 12:11:22
Writing library : libebml v1.3.1 + libmatroska v1.4.2

Video
ID : 1
Format : AVC
Format/Info : Advanced Video Codec
Format profile : High@L4.1
Format settings, CABAC : Yes
Format settings, ReFrames : 10 frames
Codec ID : V_MPEG4/ISO/AVC
Duration : 37mn 10s
Bit rate : 6 970 Kbps
Width : 1 280 pixels
Height : 640 pixels
Display aspect ratio : 2.000
Frame rate mode : Constant
Frame rate : 23.976 fps
Color space : YUV
Chroma subsampling : 4:2:0
Bit depth : 8 bits
Scan type : Progressive
Bits/(Pixel*Frame) : 0.355
Stream size : 1.81 GiB (88%)
Writing library : x264 core 144 r2525 40bb568
Encoding settings : cabac=1 / ref=10 / deblock=1:-3:-3 / analyse=0x3:0x133 / me=umh / subme=10 / psy=1 / psy_rd=1.00:0.00 / mixed_ref=1 / me_range=48 / chroma_me=1 / trellis=2 / 8x8dct=1 / cqm=0 / deadzone=21,11 / fast_pskip=0 / chroma_qp_offset=-2 / threads=12 / lookahead_threads=2 / sliced_threads=0 / nr=0 / decimate=0 / interlaced=0 / bluray_compat=0 / constrained_intra=0 / bframes=8 / b_pyramid=2 / b_adapt=2 / b_bias=0 / direct=3 / weightb=1 / open_gop=0 / weightp=2 / keyint=250 / keyint_min=23 / scenecut=40 / intra_refresh=0 / rc=crf / mbtree=0 / crf=17.0 / qcomp=0.60 / qpmin=0 / qpmax=69 / qpstep=4 / ip_ratio=1.30 / pb_ratio=1.20 / aq=3:0.80
Language : English
Default : Yes
Forced : No

Audio #1
ID : 2
Format : AC-3
Format/Info : Audio Coding 3
Mode extension : CM (complete main)
Format settings, Endianness : Big
Codec ID : A_AC3
Duration : 37mn 10s
Bit rate mode : Constant
Bit rate : 384 Kbps
Channel(s) : 6 channels
Channel positions : Front: L C R, Side: L R, LFE
Sampling rate : 48.0 KHz
Compression mode : Lossy
Stream size : 102 MiB (5%)
Title : Jaskier
Language : Russian
Default : Yes
Forced : No

Audio #2
ID : 3
Format : AC-3
Format/Info : Audio Coding 3
Mode extension : CM (complete main)
Format settings, Endianness : Big
Codec ID : A_AC3
Duration : 37mn 10s
Bit rate mode : Constant
Bit rate : 384 Kbps
Channel(s) : 6 channels
Channel positions : Front: L C R, Side: L R, LFE
Sampling rate : 48.0 KHz
Compression mode : Lossy
Stream size : 102 MiB (5%)
Language : English
Default : No
Forced : No

Text
ID : 4
Format : UTF-8
Codec ID : S_TEXT/UTF8
Codec ID/Info : UTF-8 Plain Text
Language : English
Default : No
Forced : No
скриншот   скриншот   скриншот  
Когда раздача ведётся путём добавления новых серий, при каждом добавлении создётся новый торрент. Чтобы начать докачку новой серии, пользователям необходимо сделать следующее:
(1) остановить скачивание,
(2) удалить старый торрент у себя из клиента (старые серии удалять не надо),
(3) скачать новый торрент и запустить его у себя в клиенте вместо старого, при этом указать клиенту путь в старую папку, куда и должно происходить скачивание новых серий.
Ваш клиент при этом должен произвести хеширование (проверку) старой папки (если не производит сам - помогите ему сделать это), и будет докачивать только те серии, которых у вас ещё нет. Старые серии при этом не удаляются, а продолжают раздаваться!
Eсли вы уже удалили старые серии, то предотвратить повторную закачку старых серий можно, отжав галочку в соответсвующих местах при запуске нового торрента. По возможности, желательно не удалять старые серии как можно дольше, чтобы релизёр не столько продолжал раздавать старые серии, а смог сконцентрироваться на новых.
pb.wtf



Скачать Блеск через торрент http://i95.fastpic.ru/big/2017/0628/d9/25fad2abfd0bb6e5e6fe79dba315ead9.jpg Скачать фильм Блеск через торрент бесплантно в хорошем качестве Описание: История безработной актрисы из Лос-Анджелеса по имени Рут, которая в отчаянной попытке самореализации решает сняться в сериале о ... 8.7 10 7
Info! Золотая раздача, скачанное не засчитывается.
Торрент: Зарегистрирован [2017-07-10 08:17] · скачан: 71 раз
Статус: √ проверено
Размер: 17.67 GB
Как cкачать? Как скачать Блеск через торрент | qTorrent

% Раздел Тема Автор DL S | L
T Зарубежные сериалы [ 18.6 GB ] Блеск / GLOW / Сезон: 3 / Серии: 1-10 из 10 [2019 WEBRip 1080p] MVO [Octopus] bober100 Скачать
1 | 0
T Зарубежные сериалы [ 11.98 GB ] Блеск / GLOW / Сезон: 3 / Серии: 1-10 из 10 [2019 WEBRip 720p] MVO [Octopus] bober100 Скачать
1 | 0
T Зарубежные сериалы [ 4.78 GB ] Блеск / GLOW / Сезон: 3 / Серии: 1-10 из 10 [2019 WEBRip] MVO [Octopus] bober100 Скачать
1 | 0
Зарубежные сериалы [ 32.99 GB ] Блеск / GLOW / Сезон: 2 / Серии: 1-10 из 10 [2018 WEBRip 1080p] MVO [AMS] bober100 Скачать
1 | 0
Зарубежные сериалы [ 20.9 GB ] Блеск / GLOW / Сезон: 2 / Серии: 1-10 из 10 [2018 WEBRip 720p] MVO [Jaskier] bober100 Скачать
1 | 0
Зарубежные сериалы [ 4.11 GB ] Блеск / GLOW / Сезон: 2 / Серии: 1-10 из 10 [2018 WEBRip] MVO [Jaskier] bober100 Скачать
1 | 0
Зарубежные сериалы [ 6.41 GB ] Блеск / GLOW / 1 сезон / 1-10 серии из 10 [2017 WEBRip] MVO [AMS] bober100 Скачать
1 | 0


Последний раз редактировалось: killermax2013 (2017-07-10 08:17), всего редактировалось 2 раз(а)

28-11-2019 20:33  

Отключить всю рекламу на сайте

02-07-2017 14:33 Блеск Скачать торрент  

Начало ржачное. И конечно за любимую озвучку - Jaskier, отдельное спасибо.pb.wtf



09-07-2017 14:41 Блеск Скачать торрент  

+3-8pb.wtf



10-07-2017 08:17 Блеск Скачать торрент  

+9-10pb.wtf



10-07-2017 18:59 Блеск Скачать торрент  

шикаренpb.wtf



11-07-2017 17:04 Блеск Скачать торрент  

Огромнейшее спасибо за шикарный сериал с отличным переводом. Всем советую посмотреть pb.wtf



    Дорогой пользователь! Огромная просьба, поблагодарите релизера, оцените раздачу и оставьте свои комментарий, если Вы скачали Блеск через торрент бесплатно! Внесите свою лепту в развитие PiratBit!
    Комментировать посты могут только пользователи прошедшие не сложную регистрацию
    Показать сообщения:    

    Блеск через торрент
    Скачать бесплатно Блеск
    Блеск скачать торрент
    Блеск смотреть онлайн
    Cкачать фильм Блеск бесплатно
    Блеск скачать торрент в хорошем качестве
    Блеск смотреть онлайн бесплатно в хорошем качестве


    Вы не можете начинать темы
    Вы не можете отвечать на сообщения
    Вы не можете редактировать свои сообщения
    Вы не можете удалять свои сообщения
    Вы не можете голосовать в опросах
    Вы не можете прикреплять файлы к сообщениям
    Вы можете скачивать файлы