Ссылка на приватное зеркало нашего сайта всего за 1$. Внимание количество ограничено!!!

2 сезон

iTunes

1 сезон

1

2 сезон

2 сезон

iTunes

1 сезон

RePack

30

Новинка

ВАЖНО

ИГРА 18+

pack

RePack

MK11
pack

Забери бонус

RePack

jed

!!Акция!!

Alien_Rage

RePack

fifa19

RePack

Assassins Creed: Odyssey

RePack

NEED FOR SPEED™ PAYBACK

4 сезон

9 сезон

Бесстыжие 9 сезон

Все сериалы

все сериалы на PB.wtf

RePack

FAR CRY 5
  

Эпоха за эпохой / Time After Time / Сезон 1 / Серии 1-12 из 12 (Маркос Сига, Стив Шилл, Майкл А. Алловиц) [2017, Фантастика, драма, WEB-DLRip, WEBRip] MVO [BaibaKo] pb.wtf

Эпоха за эпохой через торрент pb.wtf

Размер: 7.02 GB | Добавлен: 3 года 4 мес. назад | Торрент скачан:60 раз
Скачать  

30-06-2017 19:17 Эпоха за эпохой Скачать торрент  

Эпоха за эпохой / Time After Time
Год выпуска: 2017
Страна: США
Жанр: Фантастика, драма
Продолжительность: 12 ~ 00:50:00
Перевод: Профессиональный многоголосый -
Субтитры: отсутствуют

Режиссер: Маркос Сига, Стив Шилл, Майкл А. Алловиц

rating

В ролях:

Уилл Чейз, Эллиотт Виллар, Бен Левин, Кейлин Джонс, Фредди Строма, Куррат Анн Кадвани, Дженезис Родригез

Описание:

Сериал расскажет о приключениях молодого писателя Герберта Уэллса, который изобретает машину времени. Он еще не успел её испытать, но за него это сделал Джек-Потрошитель, скрывающийся от полиции. Уэллс, убеждённый, что в будущем наступит утопия, не будет войн и преступности, решает отправиться вслед за ним, чтобы помешать кровавому маньяку сеять хаос.

Качество: WEB-DLRip, WEBRip
Формат: AVI
Видео кодек: XviD
Аудио кодек: AC3

Видео: XviD, ~ 1750 Кбит/с, 720x400
Аудио#1: Русский (AC3, 6 ch, 192 Кбит/с)
скриншот   скриншот   скриншот   скриншот   скриншот  

Общее
Полное имя : D:\Time.After.Time.s01.WEB-DL.Rus.Eng.BaibaKo.tv\Time.After.Time.s01e03.WEB-DL.Rus.Eng.BaibaKo.tv.avi
Формат : AVI
Формат/Информация : Audio Video Interleave
Размер файла : 566 Мбайт
Продолжительность : 42 м. 45 с.
Общий поток : 1851 Кбит/сек
Программа кодирования : VirtualDubMod 1.5.10.3 | www.virtualdub-fr.org || (build 2550/release)
Библиотека кодирования : VirtualDubMod build 2550/release

Видео
Идентификатор : 0
Формат : MPEG-4 Visual
Профиль формата : Advanced Simple@L5
Параметр BVOP формата : 1
Параметр QPel формата : Нет
Параметр GMC формата : Без точки перехода
Параметр матрицы формата : Выборочная
Идентификатор кодека : XVID
Идентификатор кодека/Подсказка : XviD
Продолжительность : 42 м. 45 с.
Битрейт : 1650 Кбит/сек
Ширина : 720 пикселей
Высота : 400 пикселей
Соотношение сторон : 16:9
Частота кадров : 23,976 (23976/1000) кадра/сек
Цветовое пространство : YUV
Субдискретизация насыщенности : 4:2:0
Битовая глубина : 8 бит
Тип развёртки : Прогрессивная
Метод сжатия : С потерями
Бит/(Пиксели*Кадры) : 0.239
Размер потока : 505 Мбайт (89%)
Библиотека кодирования : XviD 73

Аудио
Идентификатор : 1
Формат : AC-3
Формат/Информация : Audio Coding 3
Расширение режима : CM (complete main)
Параметр Endianness формата : Big
Идентификатор кодека : 2000
Продолжительность : 42 м. 45 с.
Вид битрейта : Постоянный
Битрейт : 192 Кбит/сек
Каналы : 6 каналов
Расположение каналов : Front: L C R, Side: L R, LFE
Частота : 48,0 КГц
Частота кадров : 31,250 кадров/сек (1536 spf)
Метод сжатия : С потерями
Размер потока : 58,7 Мбайт (10%)
Выравнивание : Разделение по промежуткам
Продолжительность промежутка : 42 мс. (1,00 видеокадр)
Время предзагрузки промежутка : 500 мс.

Общее
Полное имя : D:\Time.After.Time.s01.WEB-DL.Rus.Eng.BaibaKo.tv\Time.After.Time.s01e06.WEBRip.Rus.Eng.BaibaKo.tv.avi
Формат : AVI
Формат/Информация : Audio Video Interleave
Размер файла : 597 Мбайт
Продолжительность : 41 м. 42 с.
Общий поток : 2000 Кбит/сек
Программа кодирования : VirtualDubMod 1.5.10.3 | www.virtualdub-fr.org || (build 2550/release)
Библиотека кодирования : VirtualDubMod build 2550/release

Видео
Идентификатор : 0
Формат : MPEG-4 Visual
Профиль формата : Advanced Simple@L5
Параметр BVOP формата : 1
Параметр QPel формата : Нет
Параметр GMC формата : Без точки перехода
Параметр матрицы формата : Выборочная
Идентификатор кодека : XVID
Идентификатор кодека/Подсказка : XviD
Продолжительность : 41 м. 42 с.
Битрейт : 1799 Кбит/сек
Ширина : 720 пикселей
Высота : 400 пикселей
Соотношение сторон : 16:9
Частота кадров : 23,976 (23976/1000) кадра/сек
Цветовое пространство : YUV
Субдискретизация насыщенности : 4:2:0
Битовая глубина : 8 бит
Тип развёртки : Прогрессивная
Метод сжатия : С потерями
Бит/(Пиксели*Кадры) : 0.260
Размер потока : 537 Мбайт (90%)
Библиотека кодирования : XviD 73

Аудио
Идентификатор : 1
Формат : AC-3
Формат/Информация : Audio Coding 3
Расширение режима : CM (complete main)
Параметр Endianness формата : Big
Идентификатор кодека : 2000
Продолжительность : 41 м. 42 с.
Вид битрейта : Постоянный
Битрейт : 192 Кбит/сек
Каналы : 6 каналов
Расположение каналов : Front: L C R, Side: L R, LFE
Частота : 48,0 КГц
Частота кадров : 31,250 кадров/сек (1536 spf)
Метод сжатия : С потерями
Размер потока : 57,3 Мбайт (10%)
Выравнивание : Разделение по промежуткам
Продолжительность промежутка : 42 мс. (1,00 видеокадр)
Время предзагрузки промежутка : 500 мс.

pb.wtf



Скачать Эпоха за эпохой через торрент http://i91.fastpic.ru/big/2017/0306/74/ea03aa10807c91640051a02757d41674.jpg Скачать фильм Эпоха за эпохой через торрент бесплантно в хорошем качестве Описание:Сериал расскажет о приключениях молодого писателя Герберта Уэллса, который изобретает машину времени. Он еще не успел её испытать, ... 10 10 6
Info! Серебряная раздача, засчитывается только 50% скачанного.
Торрент: Зарегистрирован [2017-06-30 19:17] · скачан: 60 раз
Статус: √ проверено
Размер: 7.02 GB
Как cкачать? Как скачать Эпоха за эпохой через торрент | qTorrent

% Раздел Тема Автор DL S | L
Зарубежные сериалы [ 38.54 GB ] Эпоха за эпохой / Time After Time / Сезон: 1 / Серии: 1-12 из 12 [2017 WEBRip 1080p] MVO [TVShows] bober100 Скачать
1 | 0
Зарубежные сериалы [ 9.35 GB ] Эпоха за эпохой / Time After Time / Сезон: 1 / Серии 1-12 из 12 [2017 WEB-DLRip-AVC WEBRip-AVC] MVO [BaibaKo] GEKADOL Скачать
1 | 0

28-11-2019 20:33  

Отключить всю рекламу на сайте

24-08-2017 10:17 Эпоха за эпохой Скачать торрент  

кто смотрел, как сериал?????pb.wtf



25-08-2017 04:17 Эпоха за эпохой Скачать торрент  

zomber51 писал(а):

кто смотрел, как сериал?????

я начинал когда-то. досмотрел до половины 2 серии и удалил. фантастику люблю, но конкретно этот не зацепил ничем. хотя на вкус и цвет... мож кому и понравитсяpb.wtf



    Дорогой пользователь! Огромная просьба, поблагодарите релизера, оцените раздачу и оставьте свои комментарий, если Вы скачали Эпоха за эпохой через торрент бесплатно! Внесите свою лепту в развитие PiratBit!
    Комментировать посты могут только пользователи прошедшие не сложную регистрацию
    Показать сообщения:    

    Эпоха за эпохой через торрент
    Скачать бесплатно Эпоха за эпохой
    Эпоха за эпохой скачать торрент
    Эпоха за эпохой смотреть онлайн
    Cкачать фильм Эпоха за эпохой бесплатно
    Эпоха за эпохой скачать торрент в хорошем качестве
    Эпоха за эпохой смотреть онлайн бесплатно в хорошем качестве


    Вы не можете начинать темы
    Вы не можете отвечать на сообщения
    Вы не можете редактировать свои сообщения
    Вы не можете удалять свои сообщения
    Вы не можете голосовать в опросах
    Вы не можете прикреплять файлы к сообщениям
    Вы можете скачивать файлы