Ссылка на приватное зеркало всего за 1$. Внимание количество ограничено!!!


iTunes

1+1

iTunes

мы

WEB-DL

1

iTunes

Чернобыль

iTunes

Ральф против интернета

Лицензия

ПШазам

Лицензия

Оно 2

WEB-DL

30
pack

Вам бонус

ВАЖНО

!!Акция!!

Alien_RageХит недели

RePack

Resident Evil 21

ИГРА 18+

pack

RePack

jed

!!Акция!!

Alien_Rage

RePack

fifa19

RePack

Assassins Creed: Odyssey

RePack

NEED FOR SPEED™ PAYBACK

4 сезон

9 сезон

Бесстыжие 9 сезон

Все сериалы

все сериалы на PB.wtf

RePack

FAR CRY 5
Ребята, катастрофически не хватает 1900р. для оплаты серверов за Октябрь (всвязи с блокировками трафик упал в 3 раза), 1-2р., выручайте.
  

Билет в Томагавк / A Ticket to Tomahawk (Ричард Сэйл) [1950 г., Вестерн, комедия, музыка, DVDRip-AVC, Профессиональный (многоголосый)] от ExKinoRay pb.wtf

Билет в Томагавк через торрент pb.wtf

Размер: 2.13 GB | Добавлен: 2 года 5 мес. назад | Торрент скачан:5 раз
Скачать  

30-06-2017 21:12 Билет в Томагавк Скачать торрент  

Билет в Томагавк / A Ticket to Tomahawk
Год выпуска: 1950
Страна: США
Жанр: Вестерн, комедия, музыка
Продолжительность: 01:26:35
Перевод: Профессиональный (многоголосый)

Режиссер: Ричард Сэйл

Премьера в мире: 18 апреля 1950

rating

В ролях: Дэн Дэйли, Энн Бакстер, Рори Кэлхун, Уолтер Бреннан, Чарльз Кемпер, Конни Гилкрайст, Артур Ханникат, Уилл Райт, Мэрилин Монро, Виктор Сен Юнг

Описание: 1876 год. Доусон хочет задержать поезд, следующий в Томагавк, штат Колорадо, чтобы не позволить ему обогнать его дилижанс. Среди пассажиров поезда Джонни, отвечающий за то, чтобы поездка прошла успешно и была завершена вовремя. Также в поезде едут актрисы, девушки-певицы из группы мадам Аделаиды…

Качество: DVDRip-AVC
Формат: MKV
Видео кодек: MPEG4
Аудио кодек: AC3
Видео: MPEG-4, 3000 Кбит/с, 720x576@768x576, 25 кадров/сек
Аудио#1: Русский (AC3, 2 ch, 256 Кбит/с, 48 КГц)
Аудио#2: Английский (AC3, 2 ch, 256 Кбит/с, 48 КГц)

Релиз от:




raw [info]: 720x576p 16:15 @ 25/1 fps (cfr)
x264 [info]: using SAR=16/15
x264 [info]: using cpu capabilities: MMX2 SSE2Fast LZCNT
x264 [info]: profile High, level 4.1
x264 [info]: frame I:876 Avg QP:17.67 size: 57437
x264 [info]: frame P:27242 Avg QP:19.97 size: 31695
x264 [info]: frame B:101779 Avg QP:22.55 size: 10166
x264 [info]: consecutive B-frames: 2.1% 2.2% 12.7% 3.4% 4.5% 74.4% 0.6% 0.0% 0.0% 0.0% 0.0% 0.0% 0.0% 0.0% 0.0% 0.0% 0.0%
-----
Общее
Уникальный идентификатор : 226335383676075459351487636620369887054 (0xAA469BFA6770A3A29D5AAB23669A7F4E)
Полное имя : E:\Ticket.Tomahawk.1950.DVDRip-AVC.ExKinoRay.mkv
Формат : Matroska
Версия формата : Version 2
Размер файла : 2,13 Гбайт
Продолжительность : 1 ч. 26 м.
Общий поток : 3514 Кбит/сек
Дата кодирования : UTC 2017-06-30 18:30:49
Программа кодирования : mkvmerge v7.8.0 ('River Man') 32bit built on Apr 3 2015 12:11:22
Библиотека кодирования : libebml v1.3.1 + libmatroska v1.4.2

Видео
Идентификатор : 1
Формат : AVC
Формат/Информация : Advanced Video Codec
Профиль формата : High@L4.1
Параметр CABAC формата : Да
Параметр ReFrames формата : 14 кадров
Идентификатор кодека : V_MPEG4/ISO/AVC
Продолжительность : 1 ч. 26 м.
Битрейт : 3000 Кбит/сек
Ширина : 720 пикселей
Высота : 576 пикселей
Соотношение сторон : 4:3
Режим частоты кадров : Постоянный
Частота кадров : 25,000 кадров/сек
Стандарт вещания : PAL
Цветовое пространство : YUV
Субдискретизация насыщенности : 4:2:0
Битовая глубина : 8 бит
Тип развёртки : Прогрессивная
Бит/(Пиксели*Кадры) : 0.289
Размер потока : 1,77 Гбайт (83%)
Библиотека кодирования : x264 core 148 r2638 7599210
Настройки программы : cabac=1 / ref=14 / deblock=1:-2:-2 / analyse=0x3:0x133 / me=umh / subme=10 / psy=1 / psy_rd=1.05:0.15 / mixed_ref=1 / me_range=32 / chroma_me=1 / trellis=2 / 8x8dct=1 / cqm=0 / deadzone=21,11 / fast_pskip=0 / chroma_qp_offset=-3 / threads=4 / lookahead_threads=1 / sliced_threads=0 / nr=0 / decimate=0 / interlaced=0 / bluray_compat=0 / constrained_intra=0 / bframes=16 / b_pyramid=2 / b_adapt=2 / b_bias=0 / direct=3 / weightb=1 / open_gop=0 / weightp=2 / keyint=250 / keyint_min=25 / scenecut=40 / intra_refresh=0 / rc=2pass / mbtree=0 / bitrate=3000 / ratetol=1.0 / qcomp=0.60 / qpmin=0 / qpmax=69 / qpstep=4 / cplxblur=20.0 / qblur=0.5 / ip_ratio=1.40 / pb_ratio=1.30 / aq=1:1.00
Язык : English
Default : Да
Forced : Нет
Цветовой диапазон : Limited
Основные цвета : BT.601 NTSC
Характеристики трансфера : BT.601
Коэффициенты матрицы : BT.601

Аудио #1
Идентификатор : 2
Формат : AC-3
Формат/Информация : Audio Coding 3
Расширение режима : CM (complete main)
Параметр Endianness формата : Big
Идентификатор кодека : A_AC3
Продолжительность : 1 ч. 26 м.
Вид битрейта : Постоянный
Битрейт : 256 Кбит/сек
Каналы : 2 канала
Расположение каналов : Front: L R
Частота : 48,0 КГц
Частота кадров : 31,250 кадров/сек (1536 spf)
Метод сжатия : С потерями
Размер потока : 159 Мбайт (7%)
Язык : Russian
Default : Да
Forced : Нет

Аудио #2
Идентификатор : 3
Формат : AC-3
Формат/Информация : Audio Coding 3
Расширение режима : CM (complete main)
Параметр Endianness формата : Big
Идентификатор кодека : A_AC3
Продолжительность : 1 ч. 26 м.
Вид битрейта : Постоянный
Битрейт : 256 Кбит/сек
Каналы : 2 канала
Расположение каналов : Front: L R
Частота : 48,0 КГц
Частота кадров : 31,250 кадров/сек (1536 spf)
Метод сжатия : С потерями
Размер потока : 159 Мбайт (7%)
Язык : English
Default : Нет
Forced : Нет

pb.wtf



Скачать Билет в Томагавк через торрент http://s008.radikal.ru/i305/1706/cb/2a7622fd5081.jpg Скачать фильм Билет в Томагавк через торрент бесплантно в хорошем качестве Описание: 1876 год. Доусон хочет задержать поезд, следующий в Томагавк, штат Колорадо, чтобы не позволить ему обогнать его дилижанс. Среди ... 10 10 3
Info! Золотая раздача, скачанное не засчитывается.
Торрент: Зарегистрирован [2017-06-30 21:12] · скачан: 5 раз
Статус: √ проверено
Размер: 2.13 GB
Как cкачать? Как скачать Билет в Томагавк через торрент | qTorrent

28-11-2019 20:33  

Отключить всю рекламу на сайте

30-06-2017 21:46 Билет в Томагавк Скачать торрент  

Топик был перенесен из форума Оформление раздач (Кино, Видео и ТВ) в форум Классика зарубежного кино


-Lexx-pb.wtf



    Дорогой пользователь! Огромная просьба, поблагодарите релизера, оцените раздачу и оставьте свои комментарий, если Вы скачали Билет в Томагавк через торрент бесплатно! Внесите свою лепту в развитие PiratBit!
    Комментировать посты могут только пользователи прошедшие не сложную регистрацию
    Показать сообщения:    

    Билет в Томагавк через торрент
    Скачать бесплатно Билет в Томагавк
    Билет в Томагавк скачать торрент
    Билет в Томагавк смотреть онлайн
    Cкачать фильм Билет в Томагавк бесплатно
    Билет в Томагавк скачать торрент в хорошем качестве
    Билет в Томагавк смотреть онлайн бесплатно в хорошем качестве


    Вы не можете начинать темы
    Вы не можете отвечать на сообщения
    Вы не можете редактировать свои сообщения
    Вы не можете удалять свои сообщения
    Вы не можете голосовать в опросах
    Вы не можете прикреплять файлы к сообщениям
    Вы можете скачивать файлы