2 сезон

iTunes

1 сезон

1

iTunes

iTunes

iTunes

1 сезон

RePack

30

ИГРА 18+

pack

ВАЖНО

!!Акция!!

Alien_RageХит недели

RePack

MK11
pack

Забери бонус

RePack

jed

!!Акция!!

Alien_Rage

RePack

fifa19

RePack

Assassins Creed: Odyssey

RePack

NEED FOR SPEED™ PAYBACK

4 сезон

9 сезон

Бесстыжие 9 сезон

Все сериалы

все сериалы на PB.wtf

RePack

FAR CRY 5
  

Бородач (Сезон: 1 / Серия 1-4 из 14) (Заур Болотаев) [2016, комедия, HDTV 1080i] Не требуется [Русский] От R.G.Resident pb.wtf

Бородач через торрент pb.wtf

Размер: 4.49 GB | Добавлен: 3 года 3 мес. назад | Торрент скачан:92 раза
Скачать  

01-07-2017 03:59 Бородач Скачать торрент  

Бородач
««Понять и простить»»


Год выпуска: 2016
Страна: Россия
Жанр: комедия
Продолжительность: 00:21:29
Перевод: Не требуется [Русский]
Режиссер: Заур Болотаев
В ролях:

Михаил Галустян (Александр Бородач), Демис Карибов (начальник отделения полиции), Дмитрий Никулин (Палыч), Анна Уколова (Ирина Скоробейникова), Артур Казберов (лейтенант Самойлов), Евгений Казанцев (друг жениха), Мария Староторжская (танцовщица восточных танцев), Михаил Куряев (помощник депутата Лупова), Александр Луканичев (поп), Дмитрий Меденников (младший брат Армена), Ксения Бехтина (девушка на рок-фестивале), Анастасия Лучинина (клоунесса)
Описание:
Бесконечная смена мест работы, невероятные и безумные ситуации, в которые попадает герой, постоянные приводы в полицию и потрясающее обаяние комедийного персонажа шоу «Наша Russia» Александра Бородача.

Качество: HDTV 1080i by
Формат: MKV
Видео кодек: AVC
Аудио кодек: AC3
Видео: AVC, 1920x1080 (16:9), 6999 kbps, 25 fps, 0,135 bpp
Аудио: AC3 / 2.0 / 48 kHz / 192 kbps /

General
Unique ID : 179329397755154955373291910760268831335 (0x86E995F0BBE29F3C83D72F14E9841A67)
Complete name : E:\Borodach 2016 HDTV 1080i.by.R.G.Resident\Borodach.s01.e01.2016.HDTV 1080.by.White Smoke.R.G.Resident.mkv
Format : Matroska
Format version : Version 4 / Version 2
File size : 1.07 GiB
Duration : 21 min
Overall bit rate mode : Constant
Overall bit rate : 7 150 kb/s
Movie name : Borodach.s01.e01.2016.HDTV 1080.by.White Smoke.R.G.Resident.mkv
Encoded date : UTC 2017-06-23 21:51:51
Writing application : mkvmerge v6.8.0 ('Theme for Great Cities') 64bit built on Mar 2 2014 21:34:26
Writing library : libebml v1.3.0 + libmatroska v1.4.1

Video
ID : 1
Format : AVC
Format/Info : Advanced Video Codec
Format profile : High@L4.1
Format settings, CABAC : Yes
Format settings, ReFrames : 3 frames
Format settings, GOP : M=3, N=33
Codec ID : V_MPEG4/ISO/AVC
Duration : 21 min
Bit rate mode : Constant
Bit rate : 7 000 kb/s
Width : 1 920 pixels
Height : 1 080 pixels
Display aspect ratio : 16:9
Frame rate mode : Constant
Frame rate : 25.000 FPS
Standard : PAL
Color space : YUV
Chroma subsampling : 4:2:0
Bit depth : 8 bits
Scan type : Progressive
Bits/(Pixel*Frame) : 0.135
Stream size : 1.02 GiB (95%)
Default : Yes
Forced : No
Color range : Limited
Color primaries : BT.709
Transfer characteristics : BT.709
Matrix coefficients : BT.709

Audio
ID : 2
Format : AC-3
Format/Info : Audio Coding 3
Mode extension : CM (complete main)
Format settings, Endianness : Big
Codec ID : A_AC3
Duration : 21 min
Bit rate mode : Constant
Bit rate : 192 kb/s
Channel(s) : 2 channels
Channel positions : Front: L R
Sampling rate : 48.0 kHz
Frame rate : 31.250 FPS (1536 spf)
Compression mode : Lossy
Stream size : 29.5 MiB (3%)
Default : Yes
Forced : No
pb.wtf



Скачать Бородач через торрент http://i92.fastpic.ru/big/2017/0701/04/224712258db62d4b1fca51570396e904.jpg Скачать фильм Бородач через торрент бесплантно в хорошем качестве Описание: Бесконечная смена мест работы, невероятные и безумные ситуации, в которые попадает герой, постоянные приводы в полицию и ... 10 10 6
Info! Золотая раздача, скачанное не засчитывается.
Торрент: Зарегистрирован [2017-07-01 03:59] · скачан: 92 раз
Статус: √ проверено
Размер: 4.49 GB
Как cкачать? Как скачать Бородач через торрент | qTorrent

28-11-2019 20:33  

Отключить всю рекламу на сайте

    Дорогой пользователь! Огромная просьба, поблагодарите релизера, оцените раздачу и оставьте свои комментарий, если Вы скачали Бородач через торрент бесплатно! Внесите свою лепту в развитие PiratBit!
    Комментировать посты могут только пользователи прошедшие не сложную регистрацию
    Показать сообщения:    

    Бородач через торрент
    Скачать бесплатно Бородач
    Бородач скачать торрент
    Бородач смотреть онлайн
    Cкачать фильм Бородач бесплатно
    Бородач скачать торрент в хорошем качестве
    Бородач смотреть онлайн бесплатно в хорошем качестве


    Вы не можете начинать темы
    Вы не можете отвечать на сообщения
    Вы не можете редактировать свои сообщения
    Вы не можете удалять свои сообщения
    Вы не можете голосовать в опросах
    Вы не можете прикреплять файлы к сообщениям
    Вы можете скачивать файлы