Ссылка на приватное зеркало всего за 1$. Внимание количество ограничено!!!

iTunes

iTunes

iTunes

1

iTunes

iTunes

iTunes

iTunes

iTunes

30
pack

$ от Little Big

ВАЖНО

!!Акция!!

Alien_RageХит недели

RePack

Resident Evil 21

ИГРА 18+

pack

RePack

jed

!!Акция!!

Alien_Rage

RePack

fifa19

RePack

Assassins Creed: Odyssey

RePack

NEED FOR SPEED™ PAYBACK

4 сезон

9 сезон

Бесстыжие 9 сезон

Все сериалы

все сериалы на PB.wtf

RePack

FAR CRY 5
  

Смурфики: Затерянная деревня / Smurfs: The Lost Village (Келли Эсбёри) [2017, мультфильм, фэнтези, комедия, BDRip 720p] Дубляж - [Лицензия / iTunes] - R.G.Resident pb.wtf

Смурфики: Затерянная деревня через торрент pb.wtf

Размер: 5.1 GB | Добавлен: 3 года назад | Торрент скачан:588 раз
Скачать  

01-07-2017 21:48 Смурфики: Затерянная деревня Скачать торрент  

Смурфики: Затерянная деревня / Smurfs: The Lost Village
««Кто здесь?»»

Год выпуска: 2017
Страна: США
Жанр: мультфильм, фэнтези, комедия, приключения, семейный
Продолжительность: 01:29:46
Перевод: Дубляж - [Лицензия / iTunes]
Субтитры: русские (Forced), русские (Full), английские (Full), английские (SDH)
Режиссер: Келли Эсбёри
В ролях:

Ариэль Уинтер (Smurflily, озвучка), Джо Манганьелло (Hefty, озвучка), Мишель Родригес (Smurfstorm, озвучка), Джулия Робертс (Smurfwillow, озвучка), Элли Кемпер (Smurfblossom, озвучка), Мэнди Пэтинкин (Papa Smurf, озвучка), Рэйн Уилсон (Gargamel, озвучка), Деми Ловато (Smurfette, озвучка), Джейк Джонсон (Grouchy, озвучка), Джек МакБрайер (Clumsy, озвучка), Дэнни Пуди (Brainy, озвучка), Габриэль Иглесиас (Jokey, озвучка)
Описание:
Смурфетта и её лучшие друзья Умник, Растяпа и Силач, отправляются на поиски таинственной затерянной деревни, стремясь опередить злобного волшебника Гаргамеля. В пути смурфиков ожидают невероятные опасности и головокружительные приключения, но игра стоит свеч, ведь в конечном итоге герои смогут разгадать самую большую загадку в истории своего существования!
Мировая премьера: 23 марта 2017

MPAA: PG - Рекомендуется присутствие родителей
Качество: BDRip 720p Rip by
Формат: MKV
Видео: AVC, 1280x690 (1.85:1), 6234 kbps, 23,976 fps, 0,294 bpp
Аудио №1: русский / AC3 / 5.1 / 48 kHz / 384 kbps /
Аудио №2: английский / DTS / 5.1 / 48 kHz / 1509 kbps / 16 bit
x264 [info]: frame I:1160 Avg QP:14.57 size:169710
x264 [info]: frame P:37251 Avg QP:17.46 size: 59849
x264 [info]: frame B:90733 Avg QP:18.76 size: 19528

General
Unique ID : 219162389978091199093658549427760124715 (0xA4E12415938702F8AC530C68CD61D32B)
Complete name : D:\download\Smurfs.The.Lost.Village.2017.BDRip 720p by schultz R.G.Resident.mkv
Format : Matroska
Format version : Version 4 / Version 2
File size : 5.10 GiB
Duration : 1 h 29 min
Overall bit rate : 8 131 kb/s
Encoded date : UTC 2017-07-01 21:24:01
Writing application : mkvmerge v8.9.0 ('Father Daughter') 64bit
Writing library : libebml v1.3.3 + libmatroska v1.4.4

Video
ID : 1
Format : AVC
Format/Info : Advanced Video Codec
Format profile : High@L4.1
Format settings, CABAC : Yes
Format settings, ReFrames : 11 frames
Codec ID : V_MPEG4/ISO/AVC
Duration : 1 h 29 min
Bit rate : 6 234 kb/s
Width : 1 280 pixels
Height : 690 pixels
Display aspect ratio : 1.85:1
Frame rate mode : Constant
Frame rate : 23.976 (23976/1000) FPS
Color space : YUV
Chroma subsampling : 4:2:0
Bit depth : 8 bits
Scan type : Progressive
Bits/(Pixel*Frame) : 0.294
Stream size : 3.91 GiB (77%)
Writing library : x264 core 146 r2538 121396c
Encoding settings : cabac=1 / ref=11 / deblock=1:-3:-3 / analyse=0x3:0x113 / me=umh / subme=11 / psy=1 / psy_rd=1.00:0.15 / mixed_ref=1 / me_range=48 / chroma_me=1 / trellis=2 / 8x8dct=1 / cqm=0 / deadzone=21,11 / fast_pskip=0 / chroma_qp_offset=-3 / threads=12 / lookahead_threads=2 / sliced_threads=0 / nr=0 / decimate=0 / interlaced=0 / bluray_compat=0 / constrained_intra=0 / bframes=9 / b_pyramid=2 / b_adapt=2 / b_bias=0 / direct=3 / weightb=1 / open_gop=0 / weightp=2 / keyint=240 / keyint_min=23 / scenecut=40 / intra_refresh=0 / rc_lookahead=40 / rc=2pass / mbtree=0 / bitrate=6234 / ratetol=1.0 / qcomp=0.60 / qpmin=0 / qpmax=69 / qpstep=4 / cplxblur=20.0 / qblur=0.5 / vbv_maxrate=50000 / vbv_bufsize=62500 / nal_hrd=none / filler=0 / ip_ratio=1.40 / pb_ratio=1.30 / aq=1:1.00
Language : English
Default : Yes
Forced : No
Color range : Limited
Color primaries : BT.709
Transfer characteristics : BT.709
Matrix coefficients : BT.709

Audio #1
ID : 2
Format : AC-3
Format/Info : Audio Coding 3
Mode extension : CM (complete main)
Format settings, Endianness : Big
Codec ID : A_AC3
Duration : 1 h 29 min
Bit rate mode : Constant
Bit rate : 384 kb/s
Channel(s) : 6 channels
Channel positions : Front: L C R, Side: L R, LFE
Sampling rate : 48.0 kHz
Frame rate : 31.250 FPS (1536 spf)
Compression mode : Lossy
Stream size : 247 MiB (5%)
Language : Russian
Default : Yes
Forced : No

Audio #2
ID : 3
Format : DTS
Format/Info : Digital Theater Systems
Mode : 16
Format settings, Endianness : Big
Codec ID : A_DTS
Duration : 1 h 29 min
Bit rate mode : Constant
Bit rate : 1 509 kb/s
Channel(s) : 6 channels
Channel positions : Front: L C R, Side: L R, LFE
Sampling rate : 48.0 kHz
Frame rate : 93.750 FPS (512 spf)
Bit depth : 16 bits
Compression mode : Lossy
Stream size : 969 MiB (19%)
Language : English
Default : No
Forced : No

Text #1
ID : 4
Format : UTF-8
Codec ID : S_TEXT/UTF8
Codec ID/Info : UTF-8 Plain Text
Duration : 3 s 379 ms
Bit rate : 127 b/s
Count of elements : 1
Stream size : 54.0 Bytes (0%)
Title : Forced
Language : Russian
Default : Yes
Forced : No

Text #2
ID : 5
Format : UTF-8
Codec ID : S_TEXT/UTF8
Codec ID/Info : UTF-8 Plain Text
Duration : 1 h 28 min
Bit rate : 91 b/s
Count of elements : 1099
Stream size : 59.5 KiB (0%)
Title : Full
Language : Russian
Default : No
Forced : No

Text #3
ID : 6
Format : UTF-8
Codec ID : S_TEXT/UTF8
Codec ID/Info : UTF-8 Plain Text
Duration : 1 h 25 min
Bit rate : 56 b/s
Count of elements : 1094
Stream size : 35.0 KiB (0%)
Title : Full
Language : English
Default : No
Forced : No

Text #4
ID : 7
Format : UTF-8
Codec ID : S_TEXT/UTF8
Codec ID/Info : UTF-8 Plain Text
Duration : 1 h 28 min
Bit rate : 77 b/s
Count of elements : 1753
Stream size : 50.1 KiB (0%)
Title : SDH
Language : English
Default : No
Forced : No

Menu
00:00:00.000 : en:00:00:00.000
00:08:48.445 : en:00:08:48.445
00:11:03.413 : en:00:11:03.413
00:14:33.748 : en:00:14:33.748
00:21:21.071 : en:00:21:21.071
00:27:25.143 : en:00:27:25.143
00:30:33.540 : en:00:30:33.540
00:36:49.082 : en:00:36:49.082
00:42:41.350 : en:00:42:41.350
00:45:58.673 : en:00:45:58.673
00:50:35.950 : en:00:50:35.950
00:55:41.964 : en:00:55:41.964
00:57:03.587 : en:00:57:03.587
01:02:35.293 : en:01:02:35.293
01:09:07.769 : en:01:09:07.769
01:14:39.475 : en:01:14:39.475
01:19:34.478 : en:01:19:34.478

pb.wtf



Скачать Смурфики: Затерянная деревня через торрент http://i77.fastpic.ru/big/2016/0417/a7/808a646271c761f7c7d87df3d366b3a7.png Скачать фильм Смурфики: Затерянная деревня через торрент бесплантно в хорошем качестве Описание: Смурфетта и её лучшие друзья Умник, Растяпа и Силач, отправляются на поиски таинственной затерянной деревни, стремясь опередить ... 9.8 10 12
Info! Золотая раздача, скачанное не засчитывается.
Торрент: Зарегистрирован [2017-07-01 21:48] · скачан: 588 раз
Статус: √ проверено
Размер: 5.1 GB
Как cкачать? Как скачать Смурфики: Затерянная деревня через торрент | qTorrent

% Раздел Тема Автор DL S | L
R.G.Resident - Мультфильмы, Видео [ 1.46 GB ] Смурфики: Затерянная деревня / Smurfs: The Lost Village [2017 мультфильм HDRip от R.G. Resident] - -Lexx- Скачать
1 | 0

28-11-2019 20:33  

Отключить всю рекламу на сайте

07-07-2017 09:07 Смурфики: Затерянная деревня Скачать торрент  

если скучно, можно посмотретьpb.wtf



    Дорогой пользователь! Огромная просьба, поблагодарите релизера, оцените раздачу и оставьте свои комментарий, если Вы скачали Смурфики: Затерянная деревня через торрент бесплатно! Внесите свою лепту в развитие PiratBit!
    Комментировать посты могут только пользователи прошедшие не сложную регистрацию
    Показать сообщения:    

    Смурфики: Затерянная деревня через торрент
    Скачать бесплатно Смурфики: Затерянная деревня
    Смурфики: Затерянная деревня скачать торрент
    Смурфики: Затерянная деревня смотреть онлайн
    Cкачать фильм Смурфики: Затерянная деревня бесплатно
    Смурфики: Затерянная деревня скачать торрент в хорошем качестве
    Смурфики: Затерянная деревня смотреть онлайн бесплатно в хорошем качестве


    Вы не можете начинать темы
    Вы не можете отвечать на сообщения
    Вы не можете редактировать свои сообщения
    Вы не можете удалять свои сообщения
    Вы не можете голосовать в опросах
    Вы не можете прикреплять файлы к сообщениям
    Вы можете скачивать файлы