2 сезон

iTunes

MVO

1

2 сезон

iTunes

iTunes

1 сезон

RePack

30

Новинка

ВАЖНО

ИГРА 18+

pack

RePack

MK11
pack

Легкие деньги

RePack

jed

RePack

fifa19

RePack

RDR2

RePack

NEED FOR SPEED™ PAYBACK

4 сезон

9 сезон

Бесстыжие 9 сезон

Все сериалы

все сериалы на PB.wtf

RePack

FAR CRY 5

Anonymous, добрый вечер, мы не успеваем собрать деньги на оплату серверов за декабрь и январь, помогите нам пожалуйста в это трудное время. В качестве благодарности мы отключим Вам всю рекламу на сайте (укажите свой ник в строку Ваше имя)!

×
  
Magnet ссылка

Жена смотрителя зоопарка / The Zookeeper's Wife (Ники Каро) [2017, Драма, военный, биография, реальные события, BDRip-AVC] DUB [Tunes] pb.wtf

Жена смотрителя зоопарка через торрент pb.wtf

Размер: 1.4 GB | Добавлен: 3 года 6 мес. назад | Торрент скачан:241 раз
Скачать  

02-07-2017 04:24 Жена смотрителя зоопарка Скачать торрент  

Жена смотрителя зоопарка / The Zookeeper's Wife
Год выпуска: 2017
Страна: Чехия, Великобритания, США
Жанр: Драма, военный, биография, реальные события
Продолжительность: 02:06:27
Перевод: Дубляж [iTunes]
Субтитры: английские

Режиссер: Ники Каро

rating

В ролях:

Джессика Честейн, Йохан Хелденберг, Даниэль Брюль, Тимоти Редфорд, Эфрат Дор, Иддо Голдберг, Шира Хаас, Майкл МакЭлхаттон, Вэл Малоку, Марта Иссова

Описание:

Реальная история отважного подвига смотрителей Варшавского зоопарка Яна и Антонины Жабинских, давших убежище и сохранивших жизнь более, чем 300 евреям во время II Мировой войны. Ежедневный риск и опасность осложняются для Жабинских взаимоотношениями с бывшим другом семьи, а ныне высокопоставленным нацистским чиновником Лутцем Хеком, влюбленным в Антонину.

Качество: BDRip-AVC
Формат: MKV
Видео кодек: H.264
Аудио кодек: AC3

Видео: 720x300 (2.40:1), 23.976 fps, x264 ~1203 kbps avg, 0.232 bit/pixel
Аудио#1: 48 kHz, AC3 Dolby Digital, 3/2 (L,C,R,l,r) + LFE ch, ~384.00 kbps avg | RUS (iTunes)
скриншот   скриншот   скриншот   скриншот   скриншот  

Общее
Уникальный идентификатор : 210906386711348470147177449982617670819 (0x9EAB17B23546F6AA909A8429377F54A3)
Полное имя : D:The.Zookeeper's.Wife.2017.BDRip(AVC).OlLanDGroup.mkv
Формат : Matroska
Версия формата : Version 2
Размер файла : 1,40 Гбайт
Продолжительность : 2 ч. 6 м.
Общий поток : 1588 Кбит/сек
Название фильма : The Zookeeper's Wife #TorpedoUK#
Дата кодирования : UTC 2017-07-02 02:01:36
Программа кодирования : mkvmerge v7.8.0 ('River Man') 32bit built on Apr 3 2015 12:11:22
Библиотека кодирования : libebml v1.3.1 + libmatroska v1.4.2

Видео
Идентификатор : 1
Формат : AVC
Формат/Информация : Advanced Video Codec
Профиль формата : High@L4.1
Параметр CABAC формата : Да
Параметр ReFrames формата : 10 кадров
Идентификатор кодека : V_MPEG4/ISO/AVC
Продолжительность : 2 ч. 6 м.
Битрейт : 1203 Кбит/сек
Ширина : 720 пикселей
Высота : 300 пикселей
Соотношение сторон : 2,40:1
Режим частоты кадров : Постоянный
Частота кадров : 23,976 (24000/1001) кадра/сек
Цветовое пространство : YUV
Субдискретизация насыщенности : 4:2:0
Битовая глубина : 8 бит
Тип развёртки : Прогрессивная
Бит/(Пиксели*Кадры) : 0.232
Размер потока : 1,04 Гбайт (74%)
Библиотека кодирования : x264 core 146 r2538 121396c
Настройки программы : cabac=1 / ref=10 / deblock=1:-3:-3 / analyse=0x3:0x133 / me=umh / subme=11 / psy=1 / psy_rd=1.00:0.07 / mixed_ref=1 / me_range=48 / chroma_me=1 / trellis=2 / 8x8dct=1 / cqm=0 / deadzone=21,11 / fast_pskip=0 / chroma_qp_offset=-3 / threads=6 / lookahead_threads=1 / sliced_threads=0 / nr=0 / decimate=0 / interlaced=0 / bluray_compat=0 / constrained_intra=0 / bframes=10 / b_pyramid=2 / b_adapt=2 / b_bias=0 / direct=3 / weightb=1 / open_gop=0 / weightp=2 / keyint=240 / keyint_min=23 / scenecut=40 / intra_refresh=0 / rc_lookahead=40 / rc=2pass / mbtree=0 / bitrate=1203 / ratetol=1.0 / qcomp=0.60 / qpmin=0 / qpmax=69 / qpstep=4 / cplxblur=20.0 / qblur=0.5 / vbv_maxrate=50000 / vbv_bufsize=62500 / nal_hrd=none / filler=0 / ip_ratio=1.40 / pb_ratio=1.30 / aq=1:1.00
Default : Да
Forced : Нет

Аудио
Идентификатор : 2
Формат : AC-3
Формат/Информация : Audio Coding 3
Расширение режима : CM (complete main)
Параметр Endianness формата : Big
Идентификатор кодека : A_AC3
Продолжительность : 2 ч. 6 м.
Вид битрейта : Постоянный
Битрейт : 384 Кбит/сек
Каналы : 6 каналов
Расположение каналов : Front: L C R, Side: L R, LFE
Частота : 48,0 КГц
Частота кадров : 31,250 кадров/сек (1536 spf)
Битовая глубина : 16 бит
Метод сжатия : С потерями
Размер потока : 347 Мбайт (24%)
Заголовок : iTunes
Язык : Russian
Default : Да
Forced : Нет

Текст
Идентификатор : 3
Формат : UTF-8
Идентификатор кодека : S_TEXT/UTF8
Идентификатор кодека/Информация : UTF-8 Plain Text
Заголовок : Full (SDH)
Язык : English
Default : Нет
Forced : Нет

Меню
00:00:00.000 : en:Chapter 1
00:04:55.336 : en:Chapter 2
00:14:23.111 : en:Chapter 3
00:21:16.942 : en:Chapter 4
00:29:50.246 : en:Chapter 5
00:35:39.679 : en:Chapter 6
00:40:25.588 : en:Chapter 7
00:49:46.190 : en:Chapter 8
00:54:01.195 : en:Chapter 9
01:00:25.663 : en:Chapter 10
01:06:21.686 : en:Chapter 11
01:11:48.929 : en:Chapter 12
01:19:45.863 : en:Chapter 13
01:25:10.646 : en:Chapter 14
01:30:12.448 : en:Chapter 15
01:36:42.421 : en:Chapter 16
01:39:32.925 : en:Chapter 17
01:46:18.372 : en:Chapter 18
01:55:17.159 : en:Chapter 19
02:01:44.296 : en:Chapter 20

pb.wtf



Скачать Жена смотрителя зоопарка через торрент http://lostpix.com/img/2017-07/02/mrlunav50ke3bgrq7b2ofp59z.jpg Скачать фильм Жена смотрителя зоопарка через торрент бесплантно в хорошем качестве Описание: Реальная история отважного подвига смотрителей Варшавского зоопарка Яна и Антонины Жабинских, давших убежище и сохранивших жизнь ... 9.4 10 5
Торрент: Зарегистрирован [2017-07-02 04:24] · скачан: 241 раз
Статус: √ проверено
Размер: 1.4 GB
Как cкачать? Как скачать Жена смотрителя зоопарка через торрент | UTorrent

28-11-2019 20:33  

Отключить всю рекламу на сайте

    Дорогой пользователь! Огромная просьба, поблагодарите релизера, оцените раздачу и оставьте свои комментарий, если Вы скачали Жена смотрителя зоопарка через торрент бесплатно! Внесите свою лепту в развитие PiratBit!
    Комментировать посты могут только пользователи прошедшие не сложную регистрацию
    Показать сообщения:    

    Жена смотрителя зоопарка через торрент
    Скачать бесплатно Жена смотрителя зоопарка
    Жена смотрителя зоопарка скачать торрент
    Жена смотрителя зоопарка смотреть онлайн
    Cкачать фильм Жена смотрителя зоопарка бесплатно
    Жена смотрителя зоопарка скачать торрент в хорошем качестве
    Жена смотрителя зоопарка смотреть онлайн бесплатно в хорошем качестве


    Вы не можете начинать темы
    Вы не можете отвечать на сообщения
    Вы не можете редактировать свои сообщения
    Вы не можете удалять свои сообщения
    Вы не можете голосовать в опросах
    Вы не можете прикреплять файлы к сообщениям
    Вы можете скачивать файлы