2 сезон

iTunes

MVO

1

2 сезон

iTunes

iTunes

1 сезон

RePack

30

Новинка

ВАЖНО

ИГРА 18+

pack

RePack

MK11
pack

Легкие деньги

RePack

jed

RePack

fifa19

RePack

RDR2

RePack

NEED FOR SPEED™ PAYBACK

4 сезон

9 сезон

Бесстыжие 9 сезон

Все сериалы

все сериалы на PB.wtf

RePack

FAR CRY 5

Anonymous, доброй ночи, мы не успеваем собрать деньги на оплату серверов за декабрь и январь, помогите нам пожалуйста в это трудное время. В качестве благодарности мы отключим Вам всю рекламу на сайте (укажите свой ник в строку Ваше имя)!

×
  
Magnet ссылка

Логан / Logan (Джеймс Мэнголд / James Mangold) [2017, США, фантастика, боевик, триллер, BDRip-AVC от sokol_ok] Dub [Лицензия] pb.wtf

Логан через торрент pb.wtf

Размер: 3.15 GB | Добавлен: 3 года 6 мес. назад | Торрент скачан:587 раз
Скачать  

02-07-2017 16:15 Логан Скачать торрент  

Логан
Logan

«Его время пришло»


Страна: США
Жанр: фантастика, боевик, триллер, драма

Год выпуска: 2017
Продолжительность: 02:17:23

Перевод: Профессиональный (полное дублирование) [Blu-ray EUR]
Субтитры: русские (форсированные, полные), украинские (полные), английские (полные, SDH)
Оригинальная аудиодорожка: английский

Режиссер: Джеймс Мэнголд / James Mangold

В ролях: Хью Джекман, Патрик Стюарт, Дафни Кин, Бойд Холбрук, Стивен Мерчант, Элизабет Родригес, Ричард Э. Грант, Эрик Ла Салль, Элиз Нил, Куинси Фаус, Аль Коронел, Фрэнк Гальегос

Описание:
В недалеком будущем уставший от жизни Логан заботится о больном профессоре Икс, который прячется неподалеку от мексиканской границы. Но Логан больше не сможет скрывать свое прошлое, когда встретится с юным мутантом, которого преследуют темные силы.



Релиз:

Автор рипа: stalkerok | Моя группа

Сэмпл

Качество видео: BDRip-AVC [Logan (2017) Blu-ray EUR 1080p AVC DTS 5.1 HDCLUB]
Формат видео: MKV
Видео кодек: AVC
Аудио кодек: AC3
Видео: 2379 Кбит/сек, 1188*498 (2,40:1), в 23,976 (24000/1001) кадра/сек, AVC
Аудио #1: русский, 448 Кбит/сек, 48,0 КГц, 6 каналов, AC-3
Аудио #2: английский, 448 Кбит/сек, 48,0 КГц, 6 каналов, AC-3
Навигация по главам: есть

x264 [info]: frame I:1721 Avg QP:15.83 size: 63843
x264 [info]: frame P:45568 Avg QP:17.70 size: 23837
x264 [info]: frame B:150352 Avg QP:19.48 size: 8348

Общее
Уникальный идентификатор : 219650518563369375596626440265719050090 (0xA53F26AE7FA60E73BC2381BDE15F6F6A)
Полное имя : M:\!!!!!!Rips2\Logan\n\Logan.2017.BDRip-AVC.RUS.ENG.stalkerok.new-team.mkv
Формат : Matroska
Версия формата : Version 4 / Version 2
Размер файла : 3,15 Гбайт
Продолжительность : 2 ч. 17 м.
Общий поток : 3277 Кбит/сек
Название фильма : Logan (2017) (Rip by stalkerok)
Дата кодирования : UTC 2017-07-02 15:37:43
Программа кодирования : mkvmerge v8.6.1 ('Flying') 64bit
Библиотека кодирования : libebml v1.3.3 + libmatroska v1.4.4

Видео
Идентификатор : 1
Формат : AVC
Формат/Информация : Advanced Video Codec
Профиль формата : High@L4.1
Параметр CABAC формата : Да
Параметр ReFrames формата : 13 кадров
Идентификатор кодека : V_MPEG4/ISO/AVC
Продолжительность : 2 ч. 17 м.
Битрейт : 2379 Кбит/сек
Ширина : 1188 пикселей
Высота : 498 пикселей
Соотношение сторон : 2,40:1
Соотношение сторон в оригинале : 2,40:1
Режим частоты кадров : Постоянный
Частота кадров : 23,976 (24000/1001) кадра/сек
Цветовое пространство : YUV
Субдискретизация насыщенности : 4:2:0
Битовая глубина : 8 бит
Тип развёртки : Прогрессивная
Бит/(Пиксели*Кадры) : 0.168
Размер потока : 2,28 Гбайт (73%)
Заголовок : Logan (2017) (Rip by stalkerok)
Библиотека кодирования : x264 core 150 r2833kMod df79067
Настройки программы : cabac=1 / ref=13 / deblock=1:-3:-2 / analyse=0x3:0x133 / me=umh / subme=10 / psy=1 / fade_compensate=0.00 / psy_rd=1.00:0.00 / mixed_ref=1 / me_range=32 / chroma_me=1 / trellis=2 / 8x8dct=1 / cqm=0 / deadzone=21,11 / fast_pskip=0 / chroma_qp_offset=-2 / threads=12 / lookahead_threads=3 / sliced_threads=0 / nr=0 / decimate=1 / interlaced=0 / bluray_compat=0 / constrained_intra=0 / bframes=13 / b_pyramid=2 / b_adapt=2 / b_bias=0 / direct=3 / weightb=1 / open_gop=0 / weightp=2 / keyint=240 / keyint_min=23 / scenecut=40 / intra_refresh=0 / rc_lookahead=60 / rc=crf / mbtree=0 / crf=18.3000 / qcomp=0.65 / qpmin=0 / qpmax=69 / qpstep=4 / vbv_maxrate=50000 / vbv_bufsize=62500 / crf_max=0.0 / nal_hrd=none / filler=0 / ip_ratio=1.30 / pb_ratio=1.20 / aq=3:0.80
Default : Да
Forced : Нет

Аудио #1
Идентификатор : 2
Формат : AC-3
Формат/Информация : Audio Coding 3
Расширение режима : CM (complete main)
Параметр Endianness формата : Big
Идентификатор кодека : A_AC3
Продолжительность : 2 ч. 17 м.
Вид битрейта : Постоянный
Битрейт : 448 Кбит/сек
Каналы : 6 каналов
Расположение каналов : Front: L C R, Side: L R, LFE
Частота : 48,0 КГц
Частота кадров : 31,250 кадров/сек (1536 spf)
Метод сжатия : С потерями
Размер потока : 440 Мбайт (14%)
Язык : Russian
Default : Да
Forced : Нет

Аудио #2
Идентификатор : 3
Формат : AC-3
Формат/Информация : Audio Coding 3
Расширение режима : CM (complete main)
Параметр Endianness формата : Big
Идентификатор кодека : A_AC3
Продолжительность : 2 ч. 17 м.
Вид битрейта : Постоянный
Битрейт : 448 Кбит/сек
Каналы : 6 каналов
Расположение каналов : Front: L C R, Side: L R, LFE
Частота : 48,0 КГц
Частота кадров : 31,250 кадров/сек (1536 spf)
Метод сжатия : С потерями
Размер потока : 440 Мбайт (14%)
Язык : English
Default : Нет
Forced : Нет

Текст #1
Идентификатор : 4
Формат : UTF-8
Идентификатор кодека : S_TEXT/UTF8
Идентификатор кодека/Информация : UTF-8 Plain Text
Продолжительность : 2 ч. 15 м.
Битрейт : 0 бит/сек
Count of elements : 4
Размер потока : 153 байт (0%)
Заголовок : forced
Язык : Russian
Default : Да
Forced : Нет

Текст #2
Идентификатор : 5
Формат : UTF-8
Идентификатор кодека : S_TEXT/UTF8
Идентификатор кодека/Информация : UTF-8 Plain Text
Продолжительность : 2 ч. 16 м.
Битрейт : 60 бит/сек
Count of elements : 1378
Размер потока : 60,2 Кбайт (0%)
Заголовок : full
Язык : Russian
Default : Нет
Forced : Нет

Текст #3
Идентификатор : 6
Формат : UTF-8
Идентификатор кодека : S_TEXT/UTF8
Идентификатор кодека/Информация : UTF-8 Plain Text
Продолжительность : 2 ч. 16 м.
Битрейт : 59 бит/сек
Count of elements : 1385
Размер потока : 59,5 Кбайт (0%)
Заголовок : full
Язык : Ukrainian
Default : Нет
Forced : Нет

Текст #4
Идентификатор : 7
Формат : UTF-8
Идентификатор кодека : S_TEXT/UTF8
Идентификатор кодека/Информация : UTF-8 Plain Text
Продолжительность : 2 ч. 13 м.
Битрейт : 41 бит/сек
Count of elements : 1555
Размер потока : 40,8 Кбайт (0%)
Заголовок : full
Язык : English
Default : Нет
Forced : Нет

Текст #5
Идентификатор : 8
Формат : UTF-8
Идентификатор кодека : S_TEXT/UTF8
Идентификатор кодека/Информация : UTF-8 Plain Text
Продолжительность : 2 ч. 13 м.
Битрейт : 49 бит/сек
Count of elements : 1951
Размер потока : 48,7 Кбайт (0%)
Заголовок : sdh
Язык : English
Default : Нет
Forced : Нет

Меню
00:00:00.000 : en:Chapter 1
00:05:35.126 : en:Chapter 2
00:09:18.558 : en:Chapter 3
00:11:41.158 : en:Chapter 4
00:16:23.232 : en:Chapter 5
00:20:11.668 : en:Chapter 6
00:24:26.715 : en:Chapter 7
00:26:11.903 : en:Chapter 8
00:30:13.311 : en:Chapter 9
00:31:59.125 : en:Chapter 10
00:34:56.886 : en:Chapter 11
00:39:53.432 : en:Chapter 12
00:42:55.573 : en:Chapter 13
00:45:03.826 : en:Chapter 14
00:47:53.412 : en:Chapter 15
00:49:39.559 : en:Chapter 16
00:52:14.422 : en:Chapter 17
00:54:30.517 : en:Chapter 18
00:57:44.210 : en:Chapter 19
01:00:10.398 : en:Chapter 20
01:03:53.830 : en:Chapter 21
01:06:55.511 : en:Chapter 22
01:09:54.773 : en:Chapter 23
01:13:15.891 : en:Chapter 24
01:18:43.593 : en:Chapter 25
01:21:50.906 : en:Chapter 26
01:25:52.188 : en:Chapter 27
01:28:38.813 : en:Chapter 28
01:32:41.430 : en:Chapter 29
01:35:29.724 : en:Chapter 30
01:41:03.432 : en:Chapter 31
01:43:39.880 : en:Chapter 32
01:49:38.989 : en:Chapter 33
01:54:20.562 : en:Chapter 34
01:57:00.430 : en:Chapter 35
01:59:20.403 : en:Chapter 36
02:01:14.433 : en:Chapter 37
02:05:09.627 : en:Chapter 38
02:06:40.551 : en:Chapter 39
02:11:07.860 : en:Chapter 40
скриншот   скриншот   скриншот   скриншот   скриншот   скриншот  
pb.wtf



Скачать Логан через торрент http://i72.fastpic.ru/big/2015/0531/46/68ef8a2783b58e5344cc30bbd3f1b046.png Скачать фильм Логан через торрент бесплантно в хорошем качестве Описание:В недалеком будущем уставший от жизни Логан заботится о больном профессоре Икс, который прячется неподалеку от мексиканской ... 10 10 6
Info! Золотая раздача, скачанное не засчитывается.
Торрент: Зарегистрирован [2017-07-02 16:16] · скачан: 587 раз
Статус: √ проверено
Размер: 3.15 GB
Как cкачать? Как скачать Логан через торрент | UTorrent

% Раздел Тема Автор DL S | L
Фильмы (HD 720p, 1080p) (48-60 fps) [ 4.5 GB ] Логан / Logan [2017 BDRip 720p / 60 FPS ] от R.G. HD-Films slaventi-69 Скачать
1 | 0
Фильмы 2017 [DVDrip, WEB-DLRip, HDrip] (DUB, MVO) [ 2.18 GB ] Удача Логана / Logan Lucky [2017 BDRip] [Rus Transfer] DUB [ BD RUS] bober100 Скачать
1 | 0
Фильмы 2017 [DVDrip, WEB-DLRip, HDrip] (DUB, MVO) [ 2.09 GB ] Удача Логана / Logan Lucky [2017 BDRip-AVC] DUB [] bober100 Скачать
1 | 0
Фильмы 2017 [DVDrip, WEB-DLRip, HDrip] (DUB, MVO) [ 746 MB ] Удача Логана / Logan Lucky [2017 BDRip] DUB [ BD RUS] bober100 Скачать
1 | 0
Фильмы 2017 [DVDrip, WEB-DLRip, HDrip] (DUB, MVO) [ 1.46 GB ] Удача Логана / Logan Lucky [2017 BDRip] [Rus Transfer] DUB [ BD RUS] bober100 Скачать
1 | 0
Ultra HD (UHD: 2K, 4K, 8K) — видео сверхвысокой чёткости [ 55.08 GB ] Логан / Logan [2017 UHD Blu-ray 2160p] DUB + 2xAVO sheker187 Скачать
1 | 0
Классика зарубежного кино [ 6.43 GB ] Бегство Логана / Logan's run [1976 BDRip 720p от KORSAR][MVO] Cthulhu Скачать
1 | 0

28-11-2019 20:33  

Отключить всю рекламу на сайте

    Дорогой пользователь! Огромная просьба, поблагодарите релизера, оцените раздачу и оставьте свои комментарий, если Вы скачали Логан через торрент бесплатно! Внесите свою лепту в развитие PiratBit!
    Комментировать посты могут только пользователи прошедшие не сложную регистрацию
    Показать сообщения:    

    Логан через торрент
    Скачать бесплатно Логан
    Логан скачать торрент
    Логан смотреть онлайн
    Cкачать фильм Логан бесплатно
    Логан скачать торрент в хорошем качестве
    Логан смотреть онлайн бесплатно в хорошем качестве


    Вы не можете начинать темы
    Вы не можете отвечать на сообщения
    Вы не можете редактировать свои сообщения
    Вы не можете удалять свои сообщения
    Вы не можете голосовать в опросах
    Вы не можете прикреплять файлы к сообщениям
    Вы можете скачивать файлы