2 сезон

iTunes

MVO

1

2 сезон

iTunes

iTunes

1 сезон

RePack

30

Ultimate

ВАЖНО

ИГРА 18+

pack

RePack

MK11
pack

Легкие деньги

RePack

jed

RePack

fifa19

RePack

RDR2

RePack

NEED FOR SPEED™ PAYBACK

4 сезон

9 сезон

Бесстыжие 9 сезон

Все сериалы

все сериалы на PB.wtf

RePack

FAR CRY 5

Anonymous, добрый день, мы не успеваем собрать деньги на оплату серверов за декабрь и январь, помогите нам пожалуйста в это трудное время. В качестве благодарности мы отключим Вам всю рекламу на сайте (укажите свой ник в строку Ваше имя)!

×
  
Magnet ссылка

Логан / Logan (Джеймс Мэнголд / James Mangold) [2017, США, фантастика, боевик, триллер, BDRip-AVC от sokol_ok] Dub [Лицензия] pb.wtf

Логан через торрент pb.wtf

Раздают: 1 [ 0 KB/s ]
Размер: 746 MB | Добавлен: 3 года 6 мес. назад | Торрент скачан:283 раза
Скачать  

02-07-2017 16:31 Логан Скачать торрент  

Логан
Logan

«Его время пришло»


Страна: США
Жанр: фантастика, боевик, триллер, драма

Год выпуска: 2017
Продолжительность: 02:17:23

Перевод: Профессиональный (полное дублирование) [Blu-ray EUR]
Субтитры: русские (форсированные, полные)
Оригинальная аудиодорожка: нет

Режиссер: Джеймс Мэнголд / James Mangold

В ролях: Хью Джекман, Патрик Стюарт, Дафни Кин, Бойд Холбрук, Стивен Мерчант, Элизабет Родригес, Ричард Э. Грант, Эрик Ла Салль, Элиз Нил, Куинси Фаус, Аль Коронел, Фрэнк Гальегос

Описание:
В недалеком будущем уставший от жизни Логан заботится о больном профессоре Икс, который прячется неподалеку от мексиканской границы. Но Логан больше не сможет скрывать свое прошлое, когда встретится с юным мутантом, которого преследуют темные силы.



Релиз:

Автор рипа: stalkerok | Моя группа

Сэмпл

Качество видео: BDRip-AVC [Logan (2017) Blu-ray EUR 1080p AVC DTS 5.1 HDCLUB]
Формат видео: MKV
Видео кодек: AVC
Аудио кодек: AAC
Видео: 693 Кбит/сек, 768*322 (2,40:1), в 23,976 (24000/1001) кадра/сек, AVC
Аудио: русский, 64,0 Кбит/сек, 48,0 КГц / 24,0 КГц, 2 канала, AAC (HE-AAC / LC)
Навигация по главам: есть

x264 [info]: frame I:1736 Avg QP:17.03 size: 28212
x264 [info]: frame P:44687 Avg QP:21.69 size: 7662
x264 [info]: frame B:151218 Avg QP:23.45 size: 2133

Общее
Уникальный идентификатор : 222378293540003481078426564390439685187 (0xA74C805F1875139AAC76329364150C43)
Полное имя : M:\!!!!!!Rips2\Logan\n\Logan.2017.BDRip-AVC.RUS..stalkerok.new-team.mkv
Формат : Matroska
Версия формата : Version 4 / Version 2
Размер файла : 746 Мбайт
Продолжительность : 2 ч. 17 м.
Общий поток : 759 Кбит/сек
Название фильма : Logan (2017) (Rip by stalkerok)
Дата кодирования : UTC 2017-07-02 15:36:55
Программа кодирования : mkvmerge v8.6.1 ('Flying') 64bit
Библиотека кодирования : libebml v1.3.3 + libmatroska v1.4.4

Видео
Идентификатор : 1
Формат : AVC
Формат/Информация : Advanced Video Codec
Профиль формата : High@L4.1
Параметр CABAC формата : Да
Параметр ReFrames формата : 16 кадров
Идентификатор кодека : V_MPEG4/ISO/AVC
Продолжительность : 2 ч. 17 м.
Битрейт : 693 Кбит/сек
Ширина : 768 пикселей
Высота : 322 пикселя
Соотношение сторон : 2,40:1
Режим частоты кадров : Постоянный
Частота кадров : 23,976 (24000/1001) кадра/сек
Цветовое пространство : YUV
Субдискретизация насыщенности : 4:2:0
Битовая глубина : 8 бит
Тип развёртки : Прогрессивная
Бит/(Пиксели*Кадры) : 0.117
Размер потока : 681 Мбайт (91%)
Заголовок : Logan (2017) (Rip by stalkerok)
Библиотека кодирования : x264 core 150 r2833kMod df79067
Настройки программы : cabac=1 / ref=16 / deblock=1:-3:-2 / analyse=0x3:0x133 / me=umh / subme=10 / psy=1 / fade_compensate=0.00 / psy_rd=1.00:0.00 / mixed_ref=1 / me_range=32 / chroma_me=1 / trellis=2 / 8x8dct=1 / cqm=0 / deadzone=21,11 / fast_pskip=0 / chroma_qp_offset=-2 / threads=10 / lookahead_threads=2 / sliced_threads=0 / nr=0 / decimate=0 / interlaced=0 / bluray_compat=0 / constrained_intra=0 / bframes=16 / b_pyramid=2 / b_adapt=2 / b_bias=0 / direct=3 / weightb=1 / open_gop=0 / weightp=2 / keyint=240 / keyint_min=23 / scenecut=40 / intra_refresh=0 / rc_lookahead=60 / rc=2pass / mbtree=0 / bitrate=693 / ratetol=1.0 / qcomp=0.65 / qpmin=0 / qpmax=69 / qpstep=4 / cplxblur=20.0 / qblur=0.5 / vbv_maxrate=50000 / vbv_bufsize=62500 / nal_hrd=none / filler=0 / ip_ratio=1.40 / pb_ratio=1.30 / aq=3:0.95
Default : Да
Forced : Нет

Аудио
Идентификатор : 2
Формат : AAC
Формат/Информация : Advanced Audio Codec
Профиль формата : HE-AAC / LC
Идентификатор кодека : A_AAC
Продолжительность : 2 ч. 17 м.
Битрейт : 64,0 Кбит/сек
Каналы : 2 канала
Расположение каналов : Front: L R
Частота : 48,0 КГц / 24,0 КГц
Частота кадров : 23,438 кадра/сек (1024 spf)
Метод сжатия : С потерями
Задержка видео : 31 мс.
Размер потока : 62,9 Мбайт (8%)
Язык : Russian
Default : Да
Forced : Нет

Текст #1
Идентификатор : 3
Формат : UTF-8
Идентификатор кодека : S_TEXT/UTF8
Идентификатор кодека/Информация : UTF-8 Plain Text
Продолжительность : 2 ч. 15 м.
Битрейт : 0 бит/сек
Count of elements : 4
Размер потока : 153 байт (0%)
Заголовок : forced
Язык : Russian
Default : Да
Forced : Нет

Текст #2
Идентификатор : 4
Формат : UTF-8
Идентификатор кодека : S_TEXT/UTF8
Идентификатор кодека/Информация : UTF-8 Plain Text
Продолжительность : 2 ч. 16 м.
Битрейт : 60 бит/сек
Count of elements : 1378
Размер потока : 60,2 Кбайт (0%)
Заголовок : full
Язык : Russian
Default : Нет
Forced : Нет

Меню
00:00:00.000 : en:Chapter 1
00:05:35.126 : en:Chapter 2
00:09:18.558 : en:Chapter 3
00:11:41.158 : en:Chapter 4
00:16:23.232 : en:Chapter 5
00:20:11.668 : en:Chapter 6
00:24:26.715 : en:Chapter 7
00:26:11.903 : en:Chapter 8
00:30:13.311 : en:Chapter 9
00:31:59.125 : en:Chapter 10
00:34:56.886 : en:Chapter 11
00:39:53.432 : en:Chapter 12
00:42:55.573 : en:Chapter 13
00:45:03.826 : en:Chapter 14
00:47:53.412 : en:Chapter 15
00:49:39.559 : en:Chapter 16
00:52:14.422 : en:Chapter 17
00:54:30.517 : en:Chapter 18
00:57:44.210 : en:Chapter 19
01:00:10.398 : en:Chapter 20
01:03:53.830 : en:Chapter 21
01:06:55.511 : en:Chapter 22
01:09:54.773 : en:Chapter 23
01:13:15.891 : en:Chapter 24
01:18:43.593 : en:Chapter 25
01:21:50.906 : en:Chapter 26
01:25:52.188 : en:Chapter 27
01:28:38.813 : en:Chapter 28
01:32:41.430 : en:Chapter 29
01:35:29.724 : en:Chapter 30
01:41:03.432 : en:Chapter 31
01:43:39.880 : en:Chapter 32
01:49:38.989 : en:Chapter 33
01:54:20.562 : en:Chapter 34
01:57:00.430 : en:Chapter 35
01:59:20.403 : en:Chapter 36
02:01:14.433 : en:Chapter 37
02:05:09.627 : en:Chapter 38
02:06:40.551 : en:Chapter 39
02:11:07.860 : en:Chapter 40
скриншот   скриншот   скриншот   скриншот   скриншот   скриншот  
pb.wtf



Скачать Логан через торрент http://i72.fastpic.ru/big/2015/0531/46/68ef8a2783b58e5344cc30bbd3f1b046.png Скачать фильм Логан через торрент бесплантно в хорошем качестве Описание:В недалеком будущем уставший от жизни Логан заботится о больном профессоре Икс, который прячется неподалеку от мексиканской ... 9.3 10 6
Info! Золотая раздача, скачанное не засчитывается.
Торрент: Зарегистрирован [2017-07-02 16:31] · скачан: 283 раз
Статус: √ проверено
Размер: 746 MB
Как cкачать? Как скачать Логан через торрент | UTorrent

% Раздел Тема Автор DL S | L
Фильмы (HD 720p, 1080p) (48-60 fps) [ 4.5 GB ] Логан / Logan [2017 BDRip 720p / 60 FPS ] от R.G. HD-Films slaventi-69 Скачать
1 | 0
Фильмы 2017 [DVDrip, WEB-DLRip, HDrip] (DUB, MVO) [ 2.18 GB ] Удача Логана / Logan Lucky [2017 BDRip] [Rus Transfer] DUB [ BD RUS] bober100 Скачать
1 | 0
Фильмы 2017 [DVDrip, WEB-DLRip, HDrip] (DUB, MVO) [ 2.09 GB ] Удача Логана / Logan Lucky [2017 BDRip-AVC] DUB [] bober100 Скачать
1 | 0
Фильмы 2017 [DVDrip, WEB-DLRip, HDrip] (DUB, MVO) [ 746 MB ] Удача Логана / Logan Lucky [2017 BDRip] DUB [ BD RUS] bober100 Скачать
1 | 0
Фильмы 2017 [DVDrip, WEB-DLRip, HDrip] (DUB, MVO) [ 1.46 GB ] Удача Логана / Logan Lucky [2017 BDRip] [Rus Transfer] DUB [ BD RUS] bober100 Скачать
1 | 0
Ultra HD (UHD: 2K, 4K, 8K) — видео сверхвысокой чёткости [ 55.08 GB ] Логан / Logan [2017 UHD Blu-ray 2160p] DUB + 2xAVO sheker187 Скачать
1 | 0
Классика зарубежного кино [ 6.43 GB ] Бегство Логана / Logan's run [1976 BDRip 720p от KORSAR][MVO] Cthulhu Скачать
1 | 0

28-11-2019 20:33  

Отключить всю рекламу на сайте


21-11-2017 08:26 Логан Скачать торрент  

мла-мла-мла... его время пришло. да марвел уже давно пора снимать фильмы про всех героев на пенсии. логан передал права дочери. железный - паучку. только халк и тор еще робко топчутся у дверей пенсионного фондаpb.wtf



    Дорогой пользователь! Огромная просьба, поблагодарите релизера, оцените раздачу и оставьте свои комментарий, если Вы скачали Логан через торрент бесплатно! Внесите свою лепту в развитие PiratBit!
    Комментировать посты могут только пользователи прошедшие не сложную регистрацию
    Показать сообщения:    

    Логан через торрент
    Скачать бесплатно Логан
    Логан скачать торрент
    Логан смотреть онлайн
    Cкачать фильм Логан бесплатно
    Логан скачать торрент в хорошем качестве
    Логан смотреть онлайн бесплатно в хорошем качестве


    Вы не можете начинать темы
    Вы не можете отвечать на сообщения
    Вы не можете редактировать свои сообщения
    Вы не можете удалять свои сообщения
    Вы не можете голосовать в опросах
    Вы не можете прикреплять файлы к сообщениям
    Вы можете скачивать файлы