Всегда рабочее зеркало без VPN и Proxy просто перед .vidak.icu напиши любое слово или цифру, Пример http://mq2v.vidak.icu

MVO

Лицензия

1 сезон

1

1 сезон

iTunes

1 сезон

13

1 сезон

Deluxe

pack

Рекомендуем

Пиратка

30

ВАЖНО

RePack

MK11

RePack

jed

RePack

fifa19

RePack

RDR2

RePack

NEED FOR SPEED™ PAYBACK

Кинопоиск HD

6 сезон

 Острые козырьки 6 сезон

Все сериалы

все сериалы на PB.wtf

RePack

FAR CRY 5
  
Magnet ссылка

Тринадцать / Thirteen / 1 сезон / 1-5 из 5 серий (Ванесса Касвиль, Чина Му-Ен) [2016, триллер, драма, криминал, детектив, WEB-DLRip] MVO [Студия "Позитив"] pb.wtf

Тринадцать через торрент pb.wtf

Размер: 3.09 GB | Добавлен: 5 лет назад | Торрент скачан:67 раз
Смотреть онлайн Тринадцать | Скачать    Ребята, помогите собрать деньги на оплату серверов!!!

02-07-2017 19:06 Тринадцать Скачать торрент  

Тринадцать / Thirteen
Год выпуска: 2016
Страна: Великобритания
Жанр: триллер, драма, криминал, детектив
Всего серий: 5
Продолжительность: 5 х ~ 00:50:00
Перевод: Профессиональный (многоголосый) - [Студия "Позитив"]
Субтитры: отсутствуют

Режиссер: Ванесса Касвиль, Чина Му-Ен

rating

В ролях:

Джоди Комер, Валин Кэйн, Наташа Литтл, Стюарт Грэхэм, Джо Лейтон

Описание:

Айви Моксем была похищена в 2003-м году в возрасте 13-ти лет, а еще через 13 лет ей удалось сбежать. Теперь это 26-ти летняя женщина с разумом 13-ти летней девочки. Мир вокруг полностью изменился, родители расстались, бывший парень женат, а младшая сестра выходит замуж. Тем временем у полицейских, проводящих возобновленное расследование похищения, возникает очень много вопросов, в частности - действительно ли всё было так, как рассказывает Айви?

Качество: WEB-DLRip
Формат: AVI
Видео кодек: XviD
Аудио кодек: MP3

Видео: 720x400 (1.80:1), 25 fps, XviD build 50 ~1 500 kbps avg, 0.20 bit/pixel
Аудио#1: 48 kHz, MPEG Layer 3, 2 ch, ~128.00 kbps avg
скриншот   скриншот   скриншот   скриншот  

Общее
Полное имя : D:\Trinadcatj.01\Trinadcatj.01.WEBDLRip.avi
Формат : AVI
Формат/Информация : Audio Video Interleave
Размер файла : 604 Мбайт
Продолжительность : 52 м. 22 с.
Общий поток : 1614 Кбит/сек
Программа кодирования : VirtualDubMod 1.5.10.2 (build 2540/release)
Библиотека кодирования : VirtualDubMod build 2540/release

Видео
Идентификатор : 0
Формат : MPEG-4 Visual
Профиль формата : Advanced Simple@L5
Параметр BVOP формата : 2
Параметр QPel формата : Нет
Параметр GMC формата : Без точки перехода
Параметр матрицы формата : Default (MPEG)
Идентификатор кодека : XVID
Идентификатор кодека/Подсказка : XviD
Продолжительность : 52 м. 22 с.
Битрейт : 1477 Кбит/сек
Ширина : 720 пикселей
Высота : 400 пикселей
Соотношение сторон : 16:9
Частота кадров : 25,000 кадров/сек
Цветовое пространство : YUV
Субдискретизация насыщенности : 4:2:0
Битовая глубина : 8 бит
Тип развёртки : Прогрессивная
Метод сжатия : С потерями
Бит/(Пиксели*Кадры) : 0.205
Размер потока : 553 Мбайт (92%)
Библиотека кодирования : XviD 1.2.1 (UTC 2008-12-04)

Аудио
Идентификатор : 1
Формат : MPEG Audio
Версия формата : Version 1
Профиль формата : Layer 3
Режим : Joint stereo
Расширение режима : MS Stereo
Идентификатор кодека : 55
Идентификатор кодека/Подсказка : MP3
Продолжительность : 52 м. 0 с.
Вид битрейта : Постоянный
Битрейт : 128 Кбит/сек
Каналы : 2 канала
Частота : 48,0 КГц
Метод сжатия : С потерями
Размер потока : 47,6 Мбайт (8%)
Выравнивание : Соединение по промежуткам
Продолжительность промежутка : 40 мс. (1,01 видеокадр)
Время предзагрузки промежутка : 504 мс.

pb.wtf



Скачать Тринадцать через торрент http://rudb.org/img/2017_07/i5957670073259.jpg Скачать, смотреть онлайн Тринадцать бесплантно в хорошем качестве Описание: Айви Моксем была похищена в 2003-м году в возрасте 13-ти лет, а еще через 13 лет ей удалось сбежать. Теперь это 26-ти летняя ... 10 10 6
Торрент: Зарегистрирован [2017-07-02 19:06] · скачан: 67 раз
Статус: √ проверено
Размер: 3.09 GB
Как cкачать? Как скачать Тринадцать через торрент | UTorrent

% Раздел Тема Автор DL S | L
Зарубежные сериалы [ 6.23 GB ] Тринадцать / Thirteen / Сезон: 1 / Серии 1-5 из 5 [2016 HDTVRip 720р] DVO [ViruseProject] GEKADOL Скачать
1 | 0
Зарубежные сериалы [ 3.37 GB ] Тринадцать / Thirteen / Сезон: 1 / Серии 1-5 из 5 [2016 HDTVRip] DVO [ViruseProject] GEKADOL Скачать
1 | 0

28-11-2019 20:33  

Отключить всю рекламу на сайте

02-07-2017 19:13 Тринадцать Скачать торрент  

Бывший парень? Ей 13 лет было!!!pb.wtf



02-07-2017 20:14 Тринадцать Скачать торрент  

willis2602 писал(а):

Бывший парень? Ей 13 лет было!!!

а парню было 15-17-30-ть. так-то люди в 13-ть уже вовсю "дружат" и "за ручки держатся"pb.wtf



04-07-2017 05:07 Тринадцать Скачать торрент  

вроде сериал норм , а вот концовка высосан из пальцаpb.wtf



    Дорогой пользователь! Огромная просьба, поблагодарите релизера, оцените раздачу и оставьте свои комментарий, если Вы скачали Тринадцать через торрент бесплатно!
    Комментировать посты могут только пользователи прошедшие не сложную регистрацию
    Показать сообщения:    

    Тринадцать через торрент
    Скачать бесплатно Тринадцать
    Тринадцать скачать торрент
    Тринадцать смотреть онлайн
    Cкачать фильм Тринадцать бесплатно
    Тринадцать скачать торрент в хорошем качестве
    Тринадцать смотреть онлайн бесплатно в хорошем качестве


    Вы не можете начинать темы
    Вы не можете отвечать на сообщения
    Вы не можете редактировать свои сообщения
    Вы не можете удалять свои сообщения
    Вы не можете голосовать в опросах
    Вы не можете прикреплять файлы к сообщениям
    Вы можете скачивать файлы