Ссылка на приватное зеркало нашего сайта всего за 1$. Внимание количество ограничено!!!

2 сезон

iTunes

1 сезон

1

2 сезон

2 сезон

iTunes

1 сезон

RePack

30

Ultimate

ВАЖНО

ИГРА 18+

pack

RePack

MK11
pack

Забери бонус

RePack

jed

!!Акция!!

Alien_Rage

RePack

fifa19

RePack

Assassins Creed: Odyssey

RePack

NEED FOR SPEED™ PAYBACK

4 сезон

9 сезон

Бесстыжие 9 сезон

Все сериалы

все сериалы на PB.wtf

RePack

FAR CRY 5
  

Блеск / GLOW / 1 сезон / 1-10 серии из 10 (Лиз Флэхайв) [2017, драма, комедия, спорт, WEBRip] MVO [AMS] pb.wtf

Блеск через торрент pb.wtf

Размер: 6.41 GB | Добавлен: 3 года 4 мес. назад | Торрент скачан:25 раз
Скачать  

02-07-2017 19:15 Блеск Скачать торрент  

Блеск / GLOW
Год выпуска: 2017
Страна: США
Жанр: драма, комедия, спорт
Всего серий: 10
Продолжительность: 10 x ~ 00:35:00
Перевод: Профессиональный (многоголосый) - [AMS]
Субтитры: отсутствуют

Режиссер: Лиз Флэхайв

rating

В ролях:

Эллен Вонг, Элисон Бри, Бритт Бэрон, Ким Гейтвуд, Бетти Джилпин, Ребекка Джонсон, Сунита Мани, Сидель Грэйнджер, Гэйл Ранкин и др.

Описание:

История безработной актрисы из Лос-Анджелеса по имени Рут, которая в отчаянной попытке самореализации решает сняться в сериале о женщинах-рестлерах и оказывается в мире пышных причёсок, блеска и спандекса.

Качество: WEBRip
Формат: AVI
Видео кодек: DivX
Аудио кодек: AC3

Видео: 720x360 (2.00:1), 23.976 fps, XviD build 67 ~1997 kbps avg, 0.32 bit/pixel
Аудио#1: RUS: 48 kHz, AC3 Dolby Digital, 3/2 (L,C,R,l,r) + LFE ch, ~384 kbps
Аудио#2: ENG: 48 kHz, AC3 Dolby Digital, 3/2 (L,C,R,l,r) + LFE ch, ~384 kbps
скриншот   скриншот   скриншот   скриншот  

Общее
Полное имя : D:\GLOW.S01.WEBRip.AMS\GLOW.S01E01.400p.WEBRip.AMS.avi
Формат : AVI
Формат/Информация : Audio Video Interleave
Размер файла : 740 Мбайт
Продолжительность : 37 м. 10 с.
Общий поток : 2784 Кбит/сек
Программа кодирования : Lavf57.71.100

Видео
Идентификатор : 0
Формат : MPEG-4 Visual
Профиль формата : Advanced Simple@L5
Параметр BVOP формата : 3
Параметр QPel формата : Нет
Параметр GMC формата : Без точки перехода
Параметр матрицы формата : Default (MPEG)
Идентификатор кодека : XVID
Идентификатор кодека/Подсказка : XviD
Продолжительность : 37 м. 10 с.
Битрейт : 1999 Кбит/сек
Ширина : 720 пикселей
Высота : 360 пикселей
Соотношение сторон : 16:9
Частота кадров : 23,976 (24000/1001) кадра/сек
Цветовое пространство : YUV
Субдискретизация насыщенности : 4:2:0
Битовая глубина : 8 бит
Тип развёртки : Прогрессивная
Метод сжатия : С потерями
Бит/(Пиксели*Кадры) : 0.322
Размер потока : 532 Мбайт (72%)
Библиотека кодирования : XviD 67

Аудио #1
Идентификатор : 1
Формат : AC-3
Формат/Информация : Audio Coding 3
Расширение режима : CM (complete main)
Параметр Endianness формата : Big
Идентификатор кодека : 2000
Продолжительность : 37 м. 10 с.
Вид битрейта : Постоянный
Битрейт : 384 Кбит/сек
Каналы : 6 каналов
Расположение каналов : Front: L C R, Side: L R, LFE
Частота : 48,0 КГц
Частота кадров : 31,250 кадров/сек (1536 spf)
Битовая глубина : 16 бит
Метод сжатия : С потерями
Размер потока : 102 Мбайт (14%)
Выравнивание : Соединение по промежуткам
Продолжительность промежутка : 32 мс. (0,77 видеокадр)

Аудио #2
Идентификатор : 2
Формат : AC-3
Формат/Информация : Audio Coding 3
Расширение режима : CM (complete main)
Параметр Endianness формата : Big
Идентификатор кодека : 2000
Продолжительность : 37 м. 10 с.
Вид битрейта : Постоянный
Битрейт : 384 Кбит/сек
Каналы : 6 каналов
Расположение каналов : Front: L C R, Side: L R, LFE
Частота : 48,0 КГц
Частота кадров : 31,250 кадров/сек (1536 spf)
Битовая глубина : 16 бит
Метод сжатия : С потерями
Размер потока : 102 Мбайт (14%)
Выравнивание : Соединение по промежуткам
Продолжительность промежутка : 32 мс. (0,77 видеокадр)

pb.wtf



Скачать Блеск через торрент http://i069.radikal.ru/1707/85/3573bc5da037.jpg Скачать фильм Блеск через торрент бесплантно в хорошем качестве Описание: История безработной актрисы из Лос-Анджелеса по имени Рут, которая в отчаянной попытке самореализации решает сняться в сериале о ... 8.9 10 7
Info! Золотая раздача, скачанное не засчитывается.
Торрент: Зарегистрирован [2017-07-02 19:15] · скачан: 25 раз
Статус: √ проверено
Размер: 6.41 GB
Как cкачать? Как скачать Блеск через торрент | qTorrent

% Раздел Тема Автор DL S | L
T Зарубежные сериалы [ 18.6 GB ] Блеск / GLOW / Сезон: 3 / Серии: 1-10 из 10 [2019 WEBRip 1080p] MVO [Octopus] bober100 Скачать
1 | 0
T Зарубежные сериалы [ 11.98 GB ] Блеск / GLOW / Сезон: 3 / Серии: 1-10 из 10 [2019 WEBRip 720p] MVO [Octopus] bober100 Скачать
1 | 0
T Зарубежные сериалы [ 4.78 GB ] Блеск / GLOW / Сезон: 3 / Серии: 1-10 из 10 [2019 WEBRip] MVO [Octopus] bober100 Скачать
1 | 0
Зарубежные сериалы [ 32.99 GB ] Блеск / GLOW / Сезон: 2 / Серии: 1-10 из 10 [2018 WEBRip 1080p] MVO [AMS] bober100 Скачать
1 | 0
Зарубежные сериалы [ 20.9 GB ] Блеск / GLOW / Сезон: 2 / Серии: 1-10 из 10 [2018 WEBRip 720p] MVO [Jaskier] bober100 Скачать
1 | 0
Зарубежные сериалы [ 4.11 GB ] Блеск / GLOW / Сезон: 2 / Серии: 1-10 из 10 [2018 WEBRip] MVO [Jaskier] bober100 Скачать
1 | 0

28-11-2019 20:33  

Отключить всю рекламу на сайте

    Дорогой пользователь! Огромная просьба, поблагодарите релизера, оцените раздачу и оставьте свои комментарий, если Вы скачали Блеск через торрент бесплатно! Внесите свою лепту в развитие PiratBit!
    Комментировать посты могут только пользователи прошедшие не сложную регистрацию
    Показать сообщения:    

    Блеск через торрент
    Скачать бесплатно Блеск
    Блеск скачать торрент
    Блеск смотреть онлайн
    Cкачать фильм Блеск бесплатно
    Блеск скачать торрент в хорошем качестве
    Блеск смотреть онлайн бесплатно в хорошем качестве


    Вы не можете начинать темы
    Вы не можете отвечать на сообщения
    Вы не можете редактировать свои сообщения
    Вы не можете удалять свои сообщения
    Вы не можете голосовать в опросах
    Вы не можете прикреплять файлы к сообщениям
    Вы можете скачивать файлы