Ссылка на приватное зеркало нашего сайта всего за 1$. Внимание количество ограничено!!!

2 сезон

iTunes

1 сезон

1

2 сезон

2 сезон

iTunes

1 сезон

RePack

30

Новинка

ВАЖНО

ИГРА 18+

pack

RePack

MK11
pack

Забери бонус

RePack

jed

!!Акция!!

Alien_Rage

RePack

fifa19

RePack

Assassins Creed: Odyssey

RePack

NEED FOR SPEED™ PAYBACK

4 сезон

9 сезон

Бесстыжие 9 сезон

Все сериалы

все сериалы на PB.wtf

RePack

FAR CRY 5
  

Килджой / Киллджойс / Кайфоломы / Killjoys / Сезон 3 / Серии 1-10 из 10 (Крис Грисмер, Паоло Барзмен, Энди Микита) [2017, фантастика, WEB-DLRip] MVO [LostFilm] pb.wtf

Килджой через торрент pb.wtf

Размер: 5.37 GB | Добавлен: 3 года назад | Торрент скачан:122 раза
Скачать  

03-07-2017 04:50 Килджой Скачать торрент  

═╬ Килджой / Киллджойс / Кайфоломы / Killjoys ╬═
Год выпуска: 2017
Страна: Канада
Жанр: фантастика
Продолжительность: 10 x ~ 00:43:00
Перевод: Профессиональный многоголосый - LostFilm
Субтитры: отсутствуют

Режиссер: Крис Грисмер, Паоло Барзмен, Энди Микита

rating

В ролях:

Том Эллисон, Тамсен МакДонаф, Аарон Эшмор, Роб Стюарт, Ханна Джон-Кэймен, Люк МакФарлейн, Сара Пауэр, Нора МакЛеллан, Морган Келли, Данка Щепанович, Фрэнк Мур

Описание:

Сериал рассказывает о трио охотников за головами Джоне, Д’Эвинсе и Датче. Их команда промышляет охотой на преступников в далёкой галактике Квад, где вот-вот грянет классовая война. Герои поклялись друг другу, что не будут поддерживать ни одну из сторон конфликта, где бы они не оказались.

Качество: WEB-DLRip
Формат: AVI
Видео кодек: XviD
Аудио кодек: MP3

Видео: ~ 1500 kbps, 720x400, 23.976 fps
Аудио#1: Ru: mp3, 48.0 KHz, 2 ch, 128 kbps
Аудио#2: En: mp3, 48.0 KHz, 2 ch, 128 kbps

скриншот   скриншот   скриншот   скриншот   скриншот  

Общее
Полное имя : D:\Killjoys (Season 03) LostFilm\Killjoys.S03E01.WEB-DLRip.Rus.Eng.LostFilm.avi
Формат : AVI
Формат/Информация : Audio Video Interleave
Размер файла : 550 Мбайт
Продолжительность : 43 м. 3 с.
Общий поток : 1787 Кбит/сек
Программа кодирования : VirtualDubMod 1.5.10.3 | www.virtualdub-fr.org || (build 2550/release)
Библиотека кодирования : VirtualDubMod build 2550/release

Видео
Идентификатор : 0
Формат : MPEG-4 Visual
Профиль формата : Advanced Simple@L5
Параметр BVOP формата : 1
Параметр QPel формата : Нет
Параметр GMC формата : Без точки перехода
Параметр матрицы формата : Default (MPEG)
Идентификатор кодека : XVID
Идентификатор кодека/Подсказка : XviD
Продолжительность : 43 м. 3 с.
Битрейт : 1517 Кбит/сек
Ширина : 720 пикселей
Высота : 400 пикселей
Соотношение сторон : 16:9
Частота кадров : 23,976 (23976/1000) кадра/сек
Цветовое пространство : YUV
Субдискретизация насыщенности : 4:2:0
Битовая глубина : 8 бит
Тип развёртки : Прогрессивная
Метод сжатия : С потерями
Бит/(Пиксели*Кадры) : 0.220
Размер потока : 467 Мбайт (85%)
Библиотека кодирования : XviD 73

Аудио #1
Идентификатор : 1
Формат : MPEG Audio
Версия формата : Version 1
Профиль формата : Layer 3
Режим : Joint stereo
Расширение режима : MS Stereo
Идентификатор кодека : 55
Идентификатор кодека/Подсказка : MP3
Продолжительность : 43 м. 3 с.
Вид битрейта : Постоянный
Битрейт : 128 Кбит/сек
Каналы : 2 канала
Частота : 48,0 КГц
Метод сжатия : С потерями
Размер потока : 39,4 Мбайт (7%)
Выравнивание : Соединение по промежуткам
Продолжительность промежутка : 42 мс. (1,00 видеокадр)
Время предзагрузки промежутка : 504 мс.

Аудио #2
Идентификатор : 2
Формат : MPEG Audio
Версия формата : Version 1
Профиль формата : Layer 3
Режим : Joint stereo
Расширение режима : MS Stereo
Идентификатор кодека : 55
Идентификатор кодека/Подсказка : MP3
Продолжительность : 43 м. 3 с.
Вид битрейта : Постоянный
Битрейт : 128 Кбит/сек
Каналы : 2 канала
Частота : 48,0 КГц
Метод сжатия : С потерями
Размер потока : 39,4 Мбайт (7%)
Выравнивание : Соединение по промежуткам
Продолжительность промежутка : 42 мс. (1,00 видеокадр)
Время предзагрузки промежутка : 504 мс.

Когда раздача ведётся путём добавления новых серий, при каждом добавлении создётся новый торрент. Чтобы начать докачку новой серии, пользователям необходимо сделать следующее:
(1) остановить скачивание,
(2) удалить старый торрент у себя из клиента (старые серии удалять не надо),
(3) скачать новый торрент и запустить его у себя в клиенте вместо старого, при этом указать клиенту путь в старую папку, куда и должно происходить скачивание новых серий.
Ваш клиент при этом должен произвести хеширование (проверку) старой папки (если не производит сам - помогите ему сделать это), и будет докачивать только те серии, которых у вас ещё нет. Старые серии при этом не удаляются, а продолжают раздаваться!
Eсли вы уже удалили старые серии, то предотвратить повторную закачку старых серий можно, отжав галочку в соответсвующих местах при запуске нового торрента. По возможности, желательно не удалять старые серии как можно дольше, чтобы релизёр не столько продолжал раздавать старые серии, а смог сконцентрироваться на новых.
pb.wtf



Скачать Килджой через торрент http://s008.radikal.ru/i303/1707/99/b11b46563751.png Скачать фильм Килджой через торрент бесплантно в хорошем качестве Описание: Сериал рассказывает о трио охотников за головами Джоне, Д’Эвинсе и Датче. Их команда промышляет охотой на преступников в далёкой ... 9.2 10 9
Торрент: Зарегистрирован [2017-11-10 10:26] · скачан: 122 раз
Статус: √ проверено
Размер: 5.37 GB
Как cкачать? Как скачать Килджой через торрент | qTorrent

% Раздел Тема Автор DL S | L
Зарубежные сериалы [ 5.37 GB ] Килджой / Киллджойс / Кайфоломы / Killjoys / Сезон: 3 / Серии: 1-10 из 10 [2017 WEBRip] MVO [BaibaKo] bober100 Скачать
1 | 0


Последний раз редактировалось: bober100 (2017-11-10 10:26), всего редактировалось 5 раз(а)

28-11-2019 20:33  

Отключить всю рекламу на сайте

01-08-2017 20:53 Килджой Скачать торрент  

рекламный пиратpb.wtf



02-08-2017 20:12 Килджой Скачать торрент  

залей первый и второй сезонpb.wtf



    Дорогой пользователь! Огромная просьба, поблагодарите релизера, оцените раздачу и оставьте свои комментарий, если Вы скачали Килджой через торрент бесплатно! Внесите свою лепту в развитие PiratBit!
    Комментировать посты могут только пользователи прошедшие не сложную регистрацию
    Показать сообщения:    

    Килджой через торрент
    Скачать бесплатно Килджой
    Килджой скачать торрент
    Килджой смотреть онлайн
    Cкачать фильм Килджой бесплатно
    Килджой скачать торрент в хорошем качестве
    Килджой смотреть онлайн бесплатно в хорошем качестве


    Вы не можете начинать темы
    Вы не можете отвечать на сообщения
    Вы не можете редактировать свои сообщения
    Вы не можете удалять свои сообщения
    Вы не можете голосовать в опросах
    Вы не можете прикреплять файлы к сообщениям
    Вы можете скачивать файлы