Ссылка на приватное зеркало нашего сайта всего за 1$. Внимание количество ограничено!!!

2 сезон

iTunes

1 сезон

1

iTunes

iTunes

iTunes

1 сезон

RePack

30

ИГРА 18+

pack

ВАЖНО

!!Акция!!

Alien_RageХит недели

RePack

MK11
pack

Забери бонус

RePack

jed

!!Акция!!

Alien_Rage

RePack

fifa19

RePack

Assassins Creed: Odyssey

RePack

NEED FOR SPEED™ PAYBACK

4 сезон

9 сезон

Бесстыжие 9 сезон

Все сериалы

все сериалы на PB.wtf

RePack

FAR CRY 5
  

Мальчишник в Паттайе / Pattaya (Франк Гастамбид) [2016, Комедия, приключения, BDRip 720p] DUB [iTunes] pb.wtf

Мальчишник в Паттайе через торрент pb.wtf

Размер: 4.96 GB | Добавлен: 3 года 3 мес. назад | Торрент скачан:199 раз
Скачать  

03-07-2017 18:55 Мальчишник в Паттайе Скачать торрент  

Мальчишник в Паттайе / Pattaya
Год выпуска: 2016
Страна: Франция
Жанр: Комедия, приключения
Продолжительность: 01:36:06
Перевод: Дубляж [iTunes]
Субтитры: Французские

Режиссер: Франк Гастамбид

rating

В ролях:

Франк Гастамбид, Малик Бенталха, Ануар Тубали, Рамзи Бедиа, Гад Эльмале, Сабрина Уазани, Сисси Дюпарк, Саид Богота, Акарадет Родвинит, Дэльфин Бэрил

Описание:

Хорошие парни попадают в рай, плохие парни попадают в Паттайю. Трое абсолютно безбашенных друзей — фанат Вина Дизеля, закомплексованный богач и боец-лилипут — решаются на отчаянное путешествие в курортную Паттайю. Хотели чего-то нового — получили. Причём, по полной! То, что планировалось, как лучший отпуск, превратилось в самое сумасшедшее приключение.

Качество: BDRip 720p
Формат: MKV
Видео кодек: H.264
Аудио кодек: AC3/DTS

Видео: MPEG-4 AVC, 1280x536, 5500 Kbit/s, 23.976 fps
Аудио#1: 48 kHz, AC3, 5.1, 384 Kbps | Дублированный | iTunes | RUS |
Аудио#2: 48 kHz, DTS, 5.1, 1510 Kbps | Оригинал | FRE |
скриншот   скриншот   скриншот   скриншот   скриншот  

General
Unique ID : 241808671698899619101977281359840090010 (0xB5EAA7FA58D1C10E948A3DB51535179A)
Complete name : C:UsersbattiDesktopPattaya.2016.BDRip.720p.ExKinoRay.mkv
Format : Matroska
Format version : Version 4 / Version 2
File size : 4.96 GiB
Duration : 1 h 36 min
Overall bit rate : 7 393 kb/s
Encoded date : UTC 2017-07-03 15:54:25
Writing application : mkvmerge v13.0.0 ('The Juggler') 64bit
Writing library : libebml v1.3.4 + libmatroska v1.4.5

Video
ID : 1
Format : AVC
Format/Info : Advanced Video Codec
Format profile : High@L4.1
Format settings, CABAC : Yes
Format settings, ReFrames : 12 frames
Codec ID : V_MPEG4/ISO/AVC
Duration : 1 h 36 min
Bit rate : 5 500 kb/s
Width : 1 280 pixels
Height : 536 pixels
Display aspect ratio : 2.40:1
Frame rate mode : Constant
Frame rate : 24.000 FPS
Color space : YUV
Chroma subsampling : 4:2:0
Bit depth : 8 bits
Scan type : Progressive
Bits/(Pixel*Frame) : 0.334
Stream size : 3.69 GiB (74%)
Writing library : x264 core 148 r2705 3f5ed56
Encoding settings : cabac=1 / ref=12 / deblock=1:-2:-2 / analyse=0x3:0x133 / me=umh / subme=10 / psy=1 / psy_rd=1.05:0.05 / mixed_ref=1 / me_range=24 / chroma_me=1 / trellis=2 / 8x8dct=1 / cqm=0 / deadzone=21,11 / fast_pskip=0 / chroma_qp_offset=-3 / threads=12 / lookahead_threads=2 / sliced_threads=0 / nr=0 / decimate=0 / interlaced=0 / bluray_compat=0 / constrained_intra=0 / bframes=8 / b_pyramid=2 / b_adapt=2 / b_bias=0 / direct=3 / weightb=1 / open_gop=0 / weightp=2 / keyint=240 / keyint_min=24 / scenecut=40 / intra_refresh=0 / rc_lookahead=50 / rc=2pass / mbtree=0 / bitrate=5500 / ratetol=1.0 / qcomp=0.60 / qpmin=0 / qpmax=69 / qpstep=4 / cplxblur=20.0 / qblur=0.5 / vbv_maxrate=50000 / vbv_bufsize=62500 / nal_hrd=none / filler=0 / ip_ratio=1.40 / pb_ratio=1.30 / aq=3:0.80
Language : French
Default : Yes
Forced : No

Audio #1
ID : 2
Format : AC-3
Format/Info : Audio Coding 3
Format settings, Endianness : Big
Codec ID : A_AC3
Duration : 1 h 36 min
Bit rate mode : Constant
Bit rate : 384 kb/s
Channel(s) : 6 channels
Channel positions : Front: L C R, Side: L R, LFE
Sampling rate : 48.0 kHz
Frame rate : 31.250 FPS (1536 spf)
Bit depth : 16 bits
Compression mode : Lossy
Stream size : 264 MiB (5%)
Title : iTunes
Language : Russian
Service kind : Complete Main
Default : Yes
Forced : No

Audio #2
ID : 3
Format : DTS
Format/Info : Digital Theater Systems
Mode : 16
Format settings, Endianness : Big
Codec ID : A_DTS
Duration : 1 h 36 min
Bit rate mode : Constant
Bit rate : 1 509 kb/s
Channel(s) : 6 channels
Channel positions : Front: L C R, Side: L R, LFE
Sampling rate : 48.0 kHz
Frame rate : 93.750 FPS (512 spf)
Bit depth : 24 bits
Compression mode : Lossy
Stream size : 1.01 GiB (20%)
Title : Original
Language : French
Default : No
Forced : No

Text
ID : 4
Format : UTF-8
Codec ID : S_TEXT/UTF8
Codec ID/Info : UTF-8 Plain Text
Duration : 51 min 8 s
Bit rate : 1 b/s
Count of elements : 25
Stream size : 636 Bytes (0%)
Title : full
Language : French
Default : No
Forced : No

Menu
00:00:00.000 : en:Chapter 1
00:09:13.292 : en:Chapter 2
00:16:19.833 : en:Chapter 3
00:24:08.250 : en:Chapter 4
00:29:06.000 : en:Chapter 5
00:37:59.750 : en:Chapter 6
00:51:30.708 : en:Chapter 7
01:00:55.375 : en:Chapter 8
01:06:40.458 : en:Chapter 9
01:14:31.292 : en:Chapter 10
01:19:53.875 : en:Chapter 11
01:27:58.000 : en:Chapter 12

pb.wtf



Скачать Мальчишник в Паттайе через торрент http://s013.radikal.ru/i325/1707/87/3fa4211eacbf.jpg Скачать фильм Мальчишник в Паттайе через торрент бесплантно в хорошем качестве Описание: Хорошие парни попадают в рай, плохие парни попадают в Паттайю. Трое абсолютно безбашенных друзей — фанат Вина Дизеля, ... 8.9 10 8
Торрент: Зарегистрирован [2017-07-03 18:55] · скачан: 199 раз
Статус: √ проверено
Размер: 4.96 GB
Как cкачать? Как скачать Мальчишник в Паттайе через торрент | qTorrent

% Раздел Тема Автор DL S | L
Фильмы 2016 [DVDrip, WEB-DLRip, HDrip] (DUB, MVO) [ 746 MB ] Мальчишник в Паттайе / Pattaya [2016 HDRip-AVC] bober100 Скачать
1 | 0
Фильмы (Blu-ray, BD-Remux, HDDVD) [ 24.11 GB ] Мальчишник в Паттайе / Pattaya [2016 BD Remux 1080p] bober100 Скачать
1 | 0
R.G. Resident & PiratVoice - Фильмы, Видео [ 1.96 GB ] Мальчишник в Паттайе / Pattaya [2016 BDRip-AVC от R.G. Resident] - -Lexx- Скачать
1 | 0
Фильмы [HD 720p, 1080p] (Хороший звук DUB, MVO) [ 10.26 GB ] Мальчишник в Паттайе / Pattaya [2016 BDRip 1080p] - -Lexx- Скачать
1 | 0
Фильмы 2016 [DVDrip, WEB-DLRip, HDrip] (DUB, MVO) [ 749 MB ] Мальчишник в Паттайе / Pattaya [2016 BDRip] bober100 Скачать
1 | 0

28-11-2019 20:33  

Отключить всю рекламу на сайте

    Дорогой пользователь! Огромная просьба, поблагодарите релизера, оцените раздачу и оставьте свои комментарий, если Вы скачали Мальчишник в Паттайе через торрент бесплатно! Внесите свою лепту в развитие PiratBit!
    Комментировать посты могут только пользователи прошедшие не сложную регистрацию
    Показать сообщения:    

    Мальчишник в Паттайе через торрент
    Скачать бесплатно Мальчишник в Паттайе
    Мальчишник в Паттайе скачать торрент
    Мальчишник в Паттайе смотреть онлайн
    Cкачать фильм Мальчишник в Паттайе бесплатно
    Мальчишник в Паттайе скачать торрент в хорошем качестве
    Мальчишник в Паттайе смотреть онлайн бесплатно в хорошем качестве


    Вы не можете начинать темы
    Вы не можете отвечать на сообщения
    Вы не можете редактировать свои сообщения
    Вы не можете удалять свои сообщения
    Вы не можете голосовать в опросах
    Вы не можете прикреплять файлы к сообщениям
    Вы можете скачивать файлы