Ссылка на приватное зеркало нашего сайта всего за 1$. Внимание количество ограничено!!!

2 сезон

iTunes

1 сезон

1

iTunes

iTunes

iTunes

1 сезон

RePack

30

ИГРА 18+

pack

ВАЖНО

!!Акция!!

Alien_RageХит недели

RePack

MK11
pack

Забери бонус

RePack

jed

!!Акция!!

Alien_Rage

RePack

fifa19

RePack

Assassins Creed: Odyssey

RePack

NEED FOR SPEED™ PAYBACK

4 сезон

9 сезон

Бесстыжие 9 сезон

Все сериалы

все сериалы на PB.wtf

RePack

FAR CRY 5
  

Резня в день Святого Валентина / The St. Valentine's Day Massacre (Роджер Корман) [1967, драма, криминал, история, BDRip 1080p by msltel] MVO, 2 x AVO pb.wtf

Резня в день Святого Валентина через торрент pb.wtf

Размер: 11.09 GB | Добавлен: 3 года 3 мес. назад | Торрент скачан:10 раз
Скачать  

04-07-2017 07:34 Резня в день Святого Валентина Скачать торрент  

Название: Резня в день Святого Валентина
Оригинальное название: The St. Valentine's Day Massacre
Год выпуска: 1967
Страна: США
Жанр: драма, криминал, история
Продолжительность: 01:39:54
Перевод: профессиональный многоголосый, авторский

Режиссер: Роджер Корман
В ролях: Джейсон Робардс, Джордж Сигал, Ральф Микер, Жан Хейл, Клинт Ричи, Фрэнк Сильвера, Джозеф Кампанелла, Ричард Бакалян, Дэвид Кенери, Брюс Дерн

Описание: История «Ночи длинных ножей» гангстерского мира; ночи, когда итальянская мафия во главе с безжалостным Аль Капоне обезглавила ирландскую мафию в Чикаго, отправив на свет иной всех главарей этой мощной преступной группировки. По своей молниеносности, безжалостности и масштабности эта война за передел влияния в преступном мире не имеет себе равных... Фильм основан на реальных событиях. В Чикаго 14 февраля 1929 года произошла расправа итальянских мафиози из группировки Аль Капоне с членами конкурирующей ирландской группировки Багса Морана, в результате которой было застрелено семь человек.



Качество: BDRip 1080p
Формат: MKV
Видео: MPEG-4 AVC, 14.5 Mбит/с, 1920x808, 23.976 кадр/с
Аудио 1: русский, AC3, 192 kbps, 2 ch, 48 kHz [профессиональный многоголосый, Спб, 5 канал]
Аудио 2: русский, AC3, 192 kbps, 2 ch, 48 kHz [авторский, Андрей Гаврилов]
Аудио 3: русский, AC3, 192 kbps, 2 ch, 48 kHz [авторский, Алексей Михалёв]
Аудио 4: английский, DTS, 768 kbps, 1 ch, 48 kHz [оригинал]
Субтитры: английские
Имеются неименованные главы/чаптеры.
Общее
Уникальный идентификатор : 199553069188565867475885178401088978095 (0x962085ECCBAAA0A5A9C630E5632DBCAF)
Полное имя : D:\Video\Резня в день Святого Валентина.1967.BDRip.1080p by msltel.mkv
Формат : Matroska
Версия формата : Version 4 / Version 2
Размер файла : 11,1 Гбайт
Продолжительность : 1 ч. 39 м.
Общий поток : 15,9 Мбит/сек
Название фильма : Rip by msltel
Дата кодирования : UTC 2017-07-04 03:56:29
Программа кодирования : mkvmerge v8.2.0 ('World of Adventure') 64bit
Библиотека кодирования : libebml v1.3.1 + libmatroska v1.4.2

Видео
Идентификатор : 1
Формат : AVC
Формат/Информация : Advanced Video Codec
Профиль формата : High@L4.1
Параметр CABAC формата : Да
Параметр ReFrames формата : 4 кадра
Идентификатор кодека : V_MPEG4/ISO/AVC
Продолжительность : 1 ч. 39 м.
Битрейт : 14,5 Мбит/сек
Ширина : 1920 пикселей
Высота : 808 пикселей
Соотношение сторон : 2,40:1
Режим частоты кадров : Постоянный
Частота кадров : 23,976 (24000/1001) кадра/сек
Цветовое пространство : YUV
Субдискретизация насыщенности : 4:2:0
Битовая глубина : 8 бит
Тип развёртки : Прогрессивная
Бит/(Пиксели*Кадры) : 0.391
Размер потока : 10,1 Гбайт (92%)
Библиотека кодирования : x264 core 146 r2538 121396c
Настройки программы : cabac=1 / ref=4 / deblock=1:-3:-2 / analyse=0x3:0x113 / me=umh / subme=11 / psy=1 / psy_rd=1.00:0.15 / mixed_ref=1 / me_range=32 / chroma_me=1 / trellis=2 / 8x8dct=1 / cqm=0 / deadzone=21,11 / fast_pskip=0 / chroma_qp_offset=-3 / threads=6 / lookahead_threads=1 / sliced_threads=0 / nr=0 / decimate=1 / interlaced=0 / bluray_compat=0 / constrained_intra=0 / bframes=10 / b_pyramid=2 / b_adapt=2 / b_bias=0 / direct=1 / weightb=1 / open_gop=0 / weightp=2 / keyint=230 / keyint_min=23 / scenecut=40 / intra_refresh=0 / rc_lookahead=40 / rc=crf / mbtree=0 / crf=19.7 / qcomp=0.60 / qpmin=0 / qpmax=69 / qpstep=4 / vbv_maxrate=62500 / vbv_bufsize=78125 / crf_max=0.0 / nal_hrd=none / filler=0 / ip_ratio=1.40 / pb_ratio=1.30 / aq=1:1.00
Язык : English
Default : Да
Forced : Нет

Аудио #1
Идентификатор : 2
Формат : AC-3
Формат/Информация : Audio Coding 3
Параметр Endianness формата : Big
Идентификатор кодека : A_AC3
Продолжительность : 1 ч. 39 м.
Вид битрейта : Постоянный
Битрейт : 192 Кбит/сек
Каналы : 2 канала
Расположение каналов : Front: L R
Частота : 48,0 КГц
Частота кадров : 31,250 кадров/сек (1536 spf)
Битовая глубина : 16 бит
Метод сжатия : С потерями
Размер потока : 137 Мбайт (1%)
Заголовок : MVO.Спб, 5 канал
Язык : Russian
ServiceKind/String : Complete Main
Default : Да
Forced : Нет

Аудио #2
Идентификатор : 3
Формат : AC-3
Формат/Информация : Audio Coding 3
Параметр Endianness формата : Big
Идентификатор кодека : A_AC3
Продолжительность : 1 ч. 39 м.
Вид битрейта : Постоянный
Битрейт : 192 Кбит/сек
Каналы : 2 канала
Расположение каналов : Front: L R
Частота : 48,0 КГц
Частота кадров : 31,250 кадров/сек (1536 spf)
Битовая глубина : 16 бит
Метод сжатия : С потерями
Размер потока : 137 Мбайт (1%)
Заголовок : AVO (Андрей Гаврилов)
Язык : Russian
ServiceKind/String : Complete Main
Default : Нет
Forced : Нет

Аудио #3
Идентификатор : 4
Формат : AC-3
Формат/Информация : Audio Coding 3
Параметр Endianness формата : Big
Идентификатор кодека : A_AC3
Продолжительность : 1 ч. 39 м.
Вид битрейта : Постоянный
Битрейт : 192 Кбит/сек
Каналы : 2 канала
Расположение каналов : Front: L R
Частота : 48,0 КГц
Частота кадров : 31,250 кадров/сек (1536 spf)
Битовая глубина : 16 бит
Метод сжатия : С потерями
Размер потока : 137 Мбайт (1%)
Заголовок : AVO (Алексей Михалёв)
Язык : Russian
ServiceKind/String : Complete Main
Default : Нет
Forced : Нет

Аудио #4
Идентификатор : 5
Формат : DTS
Формат/Информация : Digital Theater Systems
Режим : 16
Параметр Endianness формата : Big
Идентификатор кодека : A_DTS
Продолжительность : 1 ч. 39 м.
Вид битрейта : Постоянный
Битрейт : 768 Кбит/сек
Каналы : 1 канал
Расположение каналов : Front: C
Частота : 48,0 КГц
Частота кадров : 93,750 кадра/сек (512 spf)
Битовая глубина : 24 бит
Метод сжатия : С потерями
Размер потока : 549 Мбайт (5%)
Заголовок : original
Язык : English
Default : Нет
Forced : Нет

Текст
Идентификатор : 6
Формат : UTF-8
Идентификатор кодека : S_TEXT/UTF8
Идентификатор кодека/Информация : UTF-8 Plain Text
Продолжительность : 1 ч. 38 м.
Битрейт : 65 бит/сек
ElementCount : 1466
Размер потока : 46,8 Кбайт (0%)
Заголовок : английские
Язык : English
Default : Нет
Forced : Нет

Меню
00:00:00.000 : :Chapter 01
00:04:30.227 : :Chapter 02
00:08:11.365 : :Chapter 03
00:12:24.326 : :Chapter 04
00:17:21.749 : :Chapter 05
00:19:59.948 : :Chapter 06
00:25:55.302 : :Chapter 07
00:29:34.898 : :Chapter 08
00:32:37.997 : :Chapter 09
00:37:42.343 : :Chapter 10
00:41:04.753 : :Chapter 11
00:47:20.045 : :Chapter 12
00:53:28.121 : :Chapter 13
00:56:28.301 : :Chapter 14
01:00:30.209 : :Chapter 15
01:03:18.711 : :Chapter 16
01:08:51.544 : :Chapter 17
01:12:43.317 : :Chapter 18
01:16:34.881 : :Chapter 19
01:20:52.097 : :Chapter 20
01:26:11.707 : :Chapter 21
01:30:26.379 : :Chapter 22
01:33:37.445 : :Chapter 23
01:38:51.008 : :Chapter 24
01:39:54.780 : :Chapter 25
pb.wtf



Скачать Резня в день Святого Валентина через торрент http://hostpic.gq/img/2017-07/04/yn530rgf570brdu36q9imgsuq.jpg Скачать фильм Резня в день Святого Валентина через торрент бесплантно в хорошем качестве Описание: История «Ночи длинных ножей» гангстерского мира; ночи, когда итальянская мафия во главе с безжалостным Аль Капоне обезглавила ... 10 10 3
Info! Золотая раздача, скачанное не засчитывается.
Торрент: Зарегистрирован [2017-07-04 07:34] · скачан: 10 раз
Статус: √ проверено
Размер: 11.09 GB
Как cкачать? Как скачать Резня в день Святого Валентина через торрент | qTorrent

28-11-2019 20:33  

Отключить всю рекламу на сайте

04-07-2017 15:18 Резня в день Святого Валентина Скачать торрент  

Семь человек? Они ещё Бригаду не видели...pb.wtf



    Дорогой пользователь! Огромная просьба, поблагодарите релизера, оцените раздачу и оставьте свои комментарий, если Вы скачали Резня в день Святого Валентина через торрент бесплатно! Внесите свою лепту в развитие PiratBit!
    Комментировать посты могут только пользователи прошедшие не сложную регистрацию
    Показать сообщения:    

    Резня в день Святого Валентина через торрент
    Скачать бесплатно Резня в день Святого Валентина
    Резня в день Святого Валентина скачать торрент
    Резня в день Святого Валентина смотреть онлайн
    Cкачать фильм Резня в день Святого Валентина бесплатно
    Резня в день Святого Валентина скачать торрент в хорошем качестве
    Резня в день Святого Валентина смотреть онлайн бесплатно в хорошем качестве


    Вы не можете начинать темы
    Вы не можете отвечать на сообщения
    Вы не можете редактировать свои сообщения
    Вы не можете удалять свои сообщения
    Вы не можете голосовать в опросах
    Вы не можете прикреплять файлы к сообщениям
    Вы можете скачивать файлы