2 сезон

iTunes

MVO

1

2 сезон

iTunes

iTunes

1 сезон

RePack

30

Новинка

ВАЖНО

ИГРА 18+

pack

RePack

MK11
pack

Легкие деньги

RePack

jed

RePack

fifa19

RePack

RDR2

RePack

NEED FOR SPEED™ PAYBACK

4 сезон

9 сезон

Бесстыжие 9 сезон

Все сериалы

все сериалы на PB.wtf

RePack

FAR CRY 5

Anonymous, добрый день, мы не успеваем собрать деньги на оплату серверов за декабрь и январь, помогите нам пожалуйста в это трудное время. В качестве благодарности мы отключим Вам всю рекламу на сайте (укажите свой ник в строку Ваше имя)!

×
  
Magnet ссылка

Форсаж 8 / The Fate of the Furious (Ф. Гэри Грей / F. Gary Gray) [2017, США, боевик, триллер, криминал, BDRip-AVC от sokol_ok] Dub [Лицензия] pb.wtf

Форсаж 8 через торрент pb.wtf

Раздают: 2 [ 0 KB/s ]
Размер: 4.34 GB | Добавлен: 3 года 2 мес. назад | Торрент скачан:495 раз
Скачать  

04-07-2017 16:58 Форсаж 8 Скачать торрент  

Форсаж 8
The Fate of the Furious

«Их дороги расходятся»


Страна: США
Жанр: боевик, триллер, криминал, приключения

Год выпуска: 2017
Продолжительность: 02:15:57

Перевод: Профессиональный (полное дублирование) [Blu-ray CEE]
Субтитры: русские (форсированные, полные), английские (полные, SDH)
Оригинальная аудиодорожка: английский

Режиссер: Ф. Гэри Грей / F. Gary Gray

В ролях: Вин Дизель, Дуэйн Джонсон, Джейсон Стэйтем, Мишель Родригес, Тайриз Гибсон, Лудакрис, Натали Эммануэль, Курт Рассел, Скотт Иствуд, Шарлиз Терон, Хелен Миррен, Эльза Патаки

Описание:
Пристегните ремни - гонка продолжается. Гавана, Берлин, Нью-Йорк - для самой крутой команды в мире нет ничего невозможного, пока они вместе. Но когда на их пути окажется одна из самых красивых женщин на планете и по совместительству королева киберпреступности, дороги друзей разойдутся.



Релиз:

Автор рипа: stalkerok | Моя группа

Сэмпл

Качество видео: BDRip-AVC [The Fate of the Furious (2017) 1080p BD-Remux HDCLUB]
Формат видео: MKV
Видео кодек: AVC
Аудио кодек: AC3
Видео: 3668 Кбит/сек, 1194*500 (2,40:1), в 23,976 (24000/1001) кадра/сек, AVC
Аудио #1: русский, 448 Кбит/сек, 48,0 КГц, 6 каналов, AC-3
Аудио #2: английский, 448 Кбит/сек, 48,0 КГц, 6 каналов, AC-3
Навигация по главам: есть

x264 [info]: frame I:1834 Avg QP:15.01 size: 81471
x264 [info]: frame P:51322 Avg QP:16.85 size: 32249
x264 [info]: frame B:142425 Avg QP:18.50 size: 13592

Общее
Уникальный идентификатор : 237653366599412311870272464565689724526 (0xB2CA5F9E788F1FACB4887B2BFA092E6E)
Полное имя : M:\!!!!!!Rips2\The Fate of the Furious\2\The.Fate.of.the.Furious.2017.BDRip-AVC.RUS.ENG..stalkerok.new-team.mkv
Формат : Matroska
Версия формата : Version 4 / Version 2
Размер файла : 4,34 Гбайт
Продолжительность : 2 ч. 15 м.
Общий поток : 4567 Кбит/сек
Название фильма : The Fate of the Furious (2017) (Rip by stalkerok)
Дата кодирования : UTC 2017-10-29 10:12:06
Программа кодирования : mkvmerge v8.6.1 ('Flying') 64bit
Библиотека кодирования : libebml v1.3.3 + libmatroska v1.4.4

Видео
Идентификатор : 1
Формат : AVC
Формат/Информация : Advanced Video Codec
Профиль формата : High@L4.1
Параметр CABAC формата : Да
Параметр ReFrames формата : 13 кадров
Идентификатор кодека : V_MPEG4/ISO/AVC
Продолжительность : 2 ч. 15 м.
Битрейт : 3668 Кбит/сек
Ширина : 1194 пикселя
Высота : 500 пикселей
Соотношение сторон : 2,40:1
Режим частоты кадров : Постоянный
Частота кадров : 23,976 (24000/1001) кадра/сек
Цветовое пространство : YUV
Субдискретизация насыщенности : 4:2:0
Битовая глубина : 8 бит
Тип развёртки : Прогрессивная
Бит/(Пиксели*Кадры) : 0.256
Размер потока : 3,48 Гбайт (80%)
Заголовок : The Fate of the Furious (2017) (Rip by stalkerok)
Библиотека кодирования : x264 core 150 r2833kMod df79067
Настройки программы : cabac=1 / ref=13 / deblock=1:-3:-2 / analyse=0x3:0x133 / me=umh / subme=11 / psy=1 / fade_compensate=0.00 / psy_rd=1.00:0.00 / mixed_ref=1 / me_range=32 / chroma_me=1 / trellis=2 / 8x8dct=1 / cqm=0 / deadzone=21,11 / fast_pskip=0 / chroma_qp_offset=-2 / threads=12 / lookahead_threads=3 / sliced_threads=0 / nr=0 / decimate=1 / interlaced=0 / bluray_compat=0 / constrained_intra=0 / bframes=13 / b_pyramid=2 / b_adapt=2 / b_bias=0 / direct=3 / weightb=1 / open_gop=0 / weightp=2 / keyint=240 / keyint_min=23 / scenecut=40 / intra_refresh=0 / rc_lookahead=60 / rc=crf / mbtree=0 / crf=17.5000 / qcomp=0.65 / qpmin=0 / qpmax=69 / qpstep=4 / vbv_maxrate=50000 / vbv_bufsize=62500 / crf_max=0.0 / nal_hrd=none / filler=0 / ip_ratio=1.30 / pb_ratio=1.20 / aq=3:0.80
Default : Да
Forced : Нет

Аудио #1
Идентификатор : 2
Формат : AC-3
Формат/Информация : Audio Coding 3
Расширение режима : CM (complete main)
Параметр Endianness формата : Big
Идентификатор кодека : A_AC3
Продолжительность : 2 ч. 15 м.
Вид битрейта : Постоянный
Битрейт : 448 Кбит/сек
Каналы : 6 каналов
Расположение каналов : Front: L C R, Side: L R, LFE
Частота : 48,0 КГц
Частота кадров : 31,250 кадров/сек (1536 spf)
Метод сжатия : С потерями
Размер потока : 436 Мбайт (10%)
Язык : Russian
Default : Да
Forced : Нет

Аудио #2
Идентификатор : 3
Формат : AC-3
Формат/Информация : Audio Coding 3
Расширение режима : CM (complete main)
Параметр Endianness формата : Big
Идентификатор кодека : A_AC3
Продолжительность : 2 ч. 15 м.
Вид битрейта : Постоянный
Битрейт : 448 Кбит/сек
Каналы : 6 каналов
Расположение каналов : Front: L C R, Side: L R, LFE
Частота : 48,0 КГц
Частота кадров : 31,250 кадров/сек (1536 spf)
Метод сжатия : С потерями
Размер потока : 436 Мбайт (10%)
Язык : English
Default : Нет
Forced : Нет

Текст #1
Идентификатор : 4
Формат : UTF-8
Идентификатор кодека : S_TEXT/UTF8
Идентификатор кодека/Информация : UTF-8 Plain Text
Продолжительность : 2 ч. 7 м.
Битрейт : 1 бит/сек
Count of elements : 43
Размер потока : 1,57 Кбайт (0%)
Заголовок : forced
Язык : Russian
Default : Да
Forced : Нет

Текст #2
Идентификатор : 5
Формат : UTF-8
Идентификатор кодека : S_TEXT/UTF8
Идентификатор кодека/Информация : UTF-8 Plain Text
Продолжительность : 2 ч. 14 м.
Битрейт : 76 бит/сек
Count of elements : 1513
Размер потока : 75,9 Кбайт (0%)
Язык : Russian
Default : Нет
Forced : Нет

Текст #3
Идентификатор : 6
Формат : UTF-8
Идентификатор кодека : S_TEXT/UTF8
Идентификатор кодека/Информация : UTF-8 Plain Text
Продолжительность : 2 ч. 3 м.
Битрейт : 51 бит/сек
Count of elements : 1516
Размер потока : 46,5 Кбайт (0%)
Язык : English
Default : Нет
Forced : Нет

Текст #4
Идентификатор : 7
Формат : UTF-8
Идентификатор кодека : S_TEXT/UTF8
Идентификатор кодека/Информация : UTF-8 Plain Text
Продолжительность : 2 ч. 4 м.
Битрейт : 57 бит/сек
Count of elements : 1784
Размер потока : 52,1 Кбайт (0%)
Заголовок : SDH
Язык : English
Default : Нет
Forced : Нет

Меню
00:00:00.000 : en:Chapter 1
00:13:08.913 : en:Chapter 2
00:20:30.771 : en:Chapter 3
00:26:38.638 : en:Chapter 4
00:32:26.778 : en:Chapter 5
00:36:40.573 : en:Chapter 6
00:43:35.612 : en:Chapter 7
00:47:45.779 : en:Chapter 8
00:56:00.732 : en:Chapter 9
01:04:08.302 : en:Chapter 10
01:09:08.060 : en:Chapter 11
01:13:24.274 : en:Chapter 12
01:21:25.714 : en:Chapter 13
01:29:29.947 : en:Chapter 14
01:35:12.456 : en:Chapter 15
01:39:55.781 : en:Chapter 16
01:45:00.711 : en:Chapter 17
01:53:01.858 : en:Chapter 18
02:01:51.262 : en:Chapter 19
02:06:45.097 : en:Chapter 20
скриншот   скриншот   скриншот   скриншот   скриншот   скриншот  
pb.wtf



Скачать Форсаж 8 через торрент http://i72.fastpic.ru/big/2015/0531/46/68ef8a2783b58e5344cc30bbd3f1b046.png Скачать фильм Форсаж 8 через торрент бесплантно в хорошем качестве Описание:Пристегните ремни - гонка продолжается. Гавана, Берлин, Нью-Йорк - для самой крутой команды в мире нет ничего невозможного, пока ... 10 10 15
Info! Золотая раздача, скачанное не засчитывается.
Торрент: Зарегистрирован [2017-10-29 11:54] · скачан: 495 раз
Статус: √ проверено
Размер: 4.34 GB
Как cкачать? Как скачать Форсаж 8 через торрент | UTorrent

% Раздел Тема Автор DL S | L
Фильмы (HD 720p, 1080p) (48-60 fps) [ 4.89 GB ] Форсаж 8 / The Fate of the Furious [2017 WEBRip 720p / 60 FPS Авторский Director's cut] от R.G. HD-Films slaventi-69 Скачать
1 | 0
Фильмы с авторской озвучкой [ 2.07 GB ] Форсаж 8 / The Fate of the Furious [2017 WEBRip] [Director's Extended Cut / Режиссерская расширенная версия] [AVO] killermax2013 Скачать
1 | 0
Ultra HD (UHD: 2K, 4K, 8K) — видео сверхвысокой чёткости [ 45.84 GB ] Форсаж 8 / The Fate of the Furious [2017 UHD BDRemux 2160p] DUB [Dolby Vision] sheker187 Скачать
1 | 0
Ultra HD (UHD: 2K, 4K, 8K) — видео сверхвысокой чёткости [ 59.77 GB ] Форсаж 8 / The Fate of the Furious [2017 UHD BDRemux 2160p] DUB + 2xAVO [HDR + Dolby Vision] sheker187 Скачать
1 | 0
Фильмы [HD 720p, 1080p] (Хороший звук DUB, MVO) [ 5.6 GB ] Форсаж 8 / The Fate of the Furious [2017 BDRip 1080p HEVC ] Мичман37 Скачать
1 | 0
Ultra HD (UHD: 2K, 4K, 8K) — видео сверхвысокой чёткости [ 55.04 GB ] Форсаж 8 / The Fate of the Furious [2017 UHD Blu-ray EUR 2160p] [HDR + Dolby Vision] sheker187 Скачать
1 | 0
Ultra HD (UHD: 2K, 4K, 8K) — видео сверхвысокой чёткости [ 49.16 GB ] Форсаж 8 / The Fate of the Furious [2017 UHD BDRemux 2160p] DUB+AVO [] bober100 Скачать
1 | 0

28-11-2019 20:33  

Отключить всю рекламу на сайте

29-10-2017 11:54 Форсаж 8 Скачать торрент  

Замена на звук с Blu-ray CEE.pb.wtf



    Дорогой пользователь! Огромная просьба, поблагодарите релизера, оцените раздачу и оставьте свои комментарий, если Вы скачали Форсаж 8 через торрент бесплатно! Внесите свою лепту в развитие PiratBit!
    Комментировать посты могут только пользователи прошедшие не сложную регистрацию
    Показать сообщения:    

    Форсаж 8 через торрент
    Скачать бесплатно Форсаж 8
    Форсаж 8 скачать торрент
    Форсаж 8 смотреть онлайн
    Cкачать фильм Форсаж 8 бесплатно
    Форсаж 8 скачать торрент в хорошем качестве
    Форсаж 8 смотреть онлайн бесплатно в хорошем качестве


    Вы не можете начинать темы
    Вы не можете отвечать на сообщения
    Вы не можете редактировать свои сообщения
    Вы не можете удалять свои сообщения
    Вы не можете голосовать в опросах
    Вы не можете прикреплять файлы к сообщениям
    Вы можете скачивать файлы