Ссылка на приватное зеркало всего за 1$. Внимание количество ограничено!!!

iTunes

iTunes

iTunes

1

iTunes

iTunes

iTunes

iTunes

iTunes

30
pack

$ от Little Big

ВАЖНО

!!Акция!!

Alien_RageХит недели

RePack

Resident Evil 21

ИГРА 18+

pack

RePack

jed

!!Акция!!

Alien_Rage

RePack

fifa19

RePack

Assassins Creed: Odyssey

RePack

NEED FOR SPEED™ PAYBACK

4 сезон

9 сезон

Бесстыжие 9 сезон

Все сериалы

все сериалы на PB.wtf

RePack

FAR CRY 5
  

Секретный агент / Unlocked (Майкл Эптед) [2017, Боевик, триллер, WEB-DL 720p] DUB [iTunes] pb.wtf

Секретный агент через торрент pb.wtf

Размер: 3.04 GB | Добавлен: 3 года назад | Торрент скачан:653 раза
Скачать  

04-07-2017 21:54 Секретный агент Скачать торрент  

Секретный агент / Unlocked
Год выпуска: 2017
Страна: Великобритания
Жанр: Боевик, триллер
Продолжительность: 01:38:05
Перевод: Дубляж [iTunes]
Субтитры: отсутствуют

Режиссер: Майкл Эптед

rating

В ролях:

Нуми Рапас, Орландо Блум, Тони Коллетт, Майкл Дуглас, Джон Малкович, Акшай Кумар, Тосин Коул, Эделайо Эдедайо, Брайан Каспе, Аймен Хамдуши

Описание:

Она - секретный агент мирового уровня. На этот раз ее задача - предотвратить биологическую атаку на Лондон. Вовлеченная в большую шпионскую игру, она неизбежно сталкивается с миром двойных стандартов, паранойи, безнаказанности и предательства. Вокруг так много друзей, но кому из них на самом деле можно доверять? И кто из них тот неуловимый «крот», которого она должна вычислить, чтобы остановить террористов? Чтобы спасти Лондон, ей самой придется играть не по правилам...

Качество: WEB-DL 720p
Формат: MKV
Видео кодек: H.264
Аудио кодек: AC3

Видео: MPEG-4 AVC, 1280x530, 4051 Кbit/s, 23.976 fps
Аудио#1: 48 kHz, AC3, 5.1, 384 Kbps | Дублированный | iTunes | RUS |
скриншот   скриншот   скриншот   скриншот   скриншот  

General
Unique ID : 186766401002107865839762024912378077095 (0x8C81E6828CDFFC7A98377F4402A71FA7)
Complete name : F:DownloadUnlocked.2016.WEB-DL.720p.ExKinoRay.mkv
Format : Matroska
Format version : Version 4 / Version 2
File size : 3.04 GiB
Duration : 1 h 38 min
Overall bit rate : 4 437 kb/s
Encoded date : UTC 2017-07-04 20:55:48
Writing application : mkvmerge v13.0.0 ('The Juggler') 64bit
Writing library : libebml v1.3.4 + libmatroska v1.4.5

Video
ID : 1
Format : AVC
Format/Info : Advanced Video Codec
Format profile : Main@L3.1
Format settings, CABAC : No
Format settings, ReFrames : 2 frames
Codec ID : V_MPEG4/ISO/AVC
Duration : 1 h 38 min
Bit rate : 4 051 kb/s
Width : 1 280 pixels
Height : 530 pixels
Display aspect ratio : 2.40:1
Frame rate mode : Constant
Frame rate : 23.976 (24000/1001) FPS
Color space : YUV
Chroma subsampling : 4:2:0
Bit depth : 8 bits
Scan type : Progressive
Bits/(Pixel*Frame) : 0.249
Stream size : 2.78 GiB (91%)
Language : English
Default : Yes
Forced : No
Color range : Limited
Color primaries : BT.709
Transfer characteristics : BT.709
Matrix coefficients : BT.709

Audio
ID : 2
Format : AC-3
Format/Info : Audio Coding 3
Format settings, Endianness : Big
Codec ID : A_AC3
Duration : 1 h 38 min
Bit rate mode : Constant
Bit rate : 384 kb/s
Channel(s) : 6 channels
Channel positions : Front: L C R, Side: L R, LFE
Sampling rate : 48.0 kHz
Frame rate : 31.250 FPS (1536 spf)
Bit depth : 16 bits
Compression mode : Lossy
Stream size : 269 MiB (9%)
Title : iTunes
Language : Russian
Service kind : Complete Main
Default : Yes
Forced : No

Menu
00:00:00.000 : en:1
00:01:02.000 : en:2
00:14:16.000 : en:3
00:26:49.000 : en:4
00:39:05.000 : en:5
00:51:47.000 : en:6
01:03:51.000 : en:7
01:15:05.000 : en:8
01:32:02.000 : en:9

pb.wtf



Скачать Секретный агент через торрент http://s16.radikal.ru/i190/1707/ad/007e96fecdea.jpg Скачать фильм Секретный агент через торрент бесплантно в хорошем качестве Описание: Она - секретный агент мирового уровня. На этот раз ее задача - предотвратить биологическую атаку на Лондон. Вовлеченная в большую ... 9.6 10 21
Info! Золотая раздача, скачанное не засчитывается.
Торрент: Зарегистрирован [2017-07-04 21:54] · скачан: 653 раз
Статус: √ проверено
Размер: 3.04 GB
Как cкачать? Как скачать Секретный агент через торрент | qTorrent

% Раздел Тема Автор DL S | L
Видео для КПК и Смартфонов [ 374 MB ] Секретный агент / Unlocked [2017 HDRip КПК] DUB [] bober100 Скачать
1 | 0
Фильмы 2017 [DVDrip, WEB-DLRip, HDrip] (DUB, MVO) [ 745 MB ] Секретный агент / Unlocked [2017 WEB-DLRip] bober100 Скачать
2 | 0
Фильмы 2017 [DVDrip, WEB-DLRip, HDrip] (DUB, MVO) [ 1.46 GB ] Секретный агент / Unlocked [2017 BDRip] - [] Twi7ter Скачать
1 | 0
Фильмы 2017 [DVDrip, WEB-DLRip, HDrip] (DUB, MVO) [ 1.87 GB ] Секретный агент / Unlocked [2017 BDRip-AVC] DUB [] bober100 Скачать
1 | 0
Фильмы 2017 [DVDrip, WEB-DLRip, HDrip] (DUB, MVO) [ 1.44 GB ] Секретный агент / Unlocked [2017 BDRip-AVC] DUB [] - ExKinoRay Enigma2010 Скачать
1 | 0
Фильмы (Blu-ray, BD-Remux, HDDVD) [ 22.35 GB ] Секретный агент / Unlocked [2017 Blu-ray 1080p] DUB [RUS Transfer] [ Blu-Ray RUS] bober100 Скачать
1 | 0
Фильмы (Blu-ray, BD-Remux, HDDVD) [ 26.06 GB ] Секретный агент / Unlocked [2017 BD Remux 1080p] DUB [US Transfer] [] bober100 Скачать
1 | 0

28-11-2019 20:33  

Отключить всю рекламу на сайте

    Дорогой пользователь! Огромная просьба, поблагодарите релизера, оцените раздачу и оставьте свои комментарий, если Вы скачали Секретный агент через торрент бесплатно! Внесите свою лепту в развитие PiratBit!
    Комментировать посты могут только пользователи прошедшие не сложную регистрацию
    Показать сообщения:    

    Секретный агент через торрент
    Скачать бесплатно Секретный агент
    Секретный агент скачать торрент
    Секретный агент смотреть онлайн
    Cкачать фильм Секретный агент бесплатно
    Секретный агент скачать торрент в хорошем качестве
    Секретный агент смотреть онлайн бесплатно в хорошем качестве


    Вы не можете начинать темы
    Вы не можете отвечать на сообщения
    Вы не можете редактировать свои сообщения
    Вы не можете удалять свои сообщения
    Вы не можете голосовать в опросах
    Вы не можете прикреплять файлы к сообщениям
    Вы можете скачивать файлы