Ссылка на приватное зеркало нашего сайта всего за 1$. Внимание количество ограничено!!!

2 сезон

iTunes

1 сезон

1

2 сезон

2 сезон

iTunes

1 сезон

RePack

30

Новинка

ВАЖНО

ИГРА 18+

pack

RePack

MK11
pack

Забери бонус

RePack

jed

!!Акция!!

Alien_Rage

RePack

fifa19

RePack

Assassins Creed: Odyssey

RePack

NEED FOR SPEED™ PAYBACK

4 сезон

9 сезон

Бесстыжие 9 сезон

Все сериалы

все сериалы на PB.wtf

RePack

FAR CRY 5
  

Белое золото / White Gold / 1 сезон / Серии 01-06 из 06 (Дэймон Бисли) [2017, Комедия, WEBRip] [MVO] (Jaskier) pb.wtf

Белое золото через торрент pb.wtf

Размер: 2.05 GB | Добавлен: 1 год 8 мес. назад | Торрент скачан:22 раза
Скачать  

05-07-2017 07:28 Белое золото Скачать торрент  

Белое золото | White Gold Год выпуска: 2017
Страна: Великобритания
Жанр: Комедия
Продолжительность: ~ 00:30:00
Перевод: Профессиональный (многоголосый закадровый) | Jaskier

Режиссёр: Дэймон Бисли

В ролях: Эд Вествик, Джо Томас, Джеймс Бакли, Линзи Коккер, Найджел Линдсэй, Лорен О Рурк, Бобби Соллдридж, Лоррэйн Брюс, Ли Росс и др.

Описание: Рассказ о престижном автосалоне в Эссексе, в котором заправляет харизматичный продавец Винсент — умный, красивый и крутой. Он с радостью нарушит правила, если это позволит ему что-нибудь продать.

|

Качество: WEBRip
Формат: AVI
Видео: XviD, ~ 1400 kbps, 720x400 (16:9), 25 fps
Аудио 1: MP3, 48,0 КГц, 2 ch, 128 kbps - Rus
Аудио 2: MP3, 48,0 КГц, 2 ch, 128 kbps - Eng
Субтитры: отсутствуют
Общее
Полное имя                               : E:\JASKiER\White Gold. Season 1 (WEBRip l 400p l Jaskier)\White.Gold.S01E01.WEBRip.Rus.Eng.Jaskier.avi
Формат                                   : AVI
Формат/Информация                        : Audio Video Interleave
Размер файла                             : 351 Мбайт
Продолжительность                        : 29 м. 26 с.
Общий поток                              : 1665 Кбит/сек
Программа кодирования                    : VirtualDubMod 1.5.10.3 | www.virtualdub-fr.org || (build 2550/release)
Библиотека кодирования                   : VirtualDubMod build 2550/release

Видео
Идентификатор                            : 0
Формат                                   : MPEG-4 Visual
Профиль формата                          : Advanced Simple@L5
Параметр BVOP формата                    : 1
Параметр QPel формата                    : Нет
Параметр GMC формата                     : Без точки перехода
Параметр матрицы формата                 : Default (MPEG)
Идентификатор кодека                     : XVID
Идентификатор кодека/Подсказка           : XviD
Продолжительность                        : 29 м. 26 с.
Битрейт                                  : 1395 Кбит/сек
Ширина                                   : 720 пикселей
Высота                                   : 400 пикселей
Соотношение сторон                       : 16:9
Частота кадров                           : 25,000 кадров/сек
Цветовое пространство                    : YUV
Субдискретизация насыщенности            : 4:2:0
Битовая глубина                          : 8 бит
Тип развёртки                            : Прогрессивная
Метод сжатия                             : С потерями
Бит/(Пиксели*Кадры)                      : 0.194
Размер потока                            : 294 Мбайт (84%)
Библиотека кодирования                   : XviD 73

Аудио #1
Идентификатор                            : 1
Формат                                   : MPEG Audio
Версия формата                           : Version 1
Профиль формата                          : Layer 3
Режим                                    : Joint stereo
Расширение режима                        : MS Stereo
Идентификатор кодека                     : 55
Идентификатор кодека/Подсказка           : MP3
Продолжительность                        : 29 м. 26 с.
Вид битрейта                             : Постоянный
Битрейт                                  : 128 Кбит/сек
Каналы                                   : 2 канала
Частота                                  : 48,0 КГц
Метод сжатия                             : С потерями
Размер потока                            : 27,0 Мбайт (8%)
Выравнивание                             : Соединение по промежуткам
Продолжительность промежутка             : 40  мс. (1,00 видеокадр)
Время предзагрузки промежутка            : 504  мс.

Аудио #2
Идентификатор                            : 2
Формат                                   : MPEG Audio
Версия формата                           : Version 1
Профиль формата                          : Layer 3
Режим                                    : Joint stereo
Расширение режима                        : MS Stereo
Идентификатор кодека                     : 55
Идентификатор кодека/Подсказка           : MP3
Продолжительность                        : 29 м. 26 с.
Вид битрейта                             : Постоянный
Битрейт                                  : 128 Кбит/сек
Каналы                                   : 2 канала
Частота                                  : 48,0 КГц
Метод сжатия                             : С потерями
Размер потока                            : 27,0 Мбайт (8%)
Выравнивание                             : Соединение по промежуткам
Продолжительность промежутка             : 40  мс. (1,00 видеокадр)
Время предзагрузки промежутка            : 504  мс.
скриншот   скриншот   скриншот  
pb.wtf



Скачать Белое золото через торрент http://i93.fastpic.ru/big/2017/0703/0c/745a5a332ce59e9dc9e3f1e8a9361e0c.png Скачать фильм Белое золото через торрент бесплантно в хорошем качестве Описание: Рассказ о престижном автосалоне в Эссексе, в котором заправляет харизматичный продавец Винсент — умный, красивый и крутой. Он с ... 7.8 10 5
Торрент: Зарегистрирован [2019-03-07 17:00] · скачан: 22 раз
Статус: √ проверено
Размер: 2.05 GB
Как cкачать? Как скачать Белое золото через торрент | qTorrent



Последний раз редактировалось: killermax2013 (2019-03-07 17:00), всего редактировалось 3 раз(а)

28-11-2019 20:33  

Отключить всю рекламу на сайте

24-08-2017 10:13 Белое золото Скачать торрент  

кто смотрел, как сериал???pb.wtf



24-08-2017 15:11 Белое золото Скачать торрент  

zomber51 писал(а):

кто смотрел, как сериал???

Рекомендую pb.wtf



11-09-2017 17:18 Белое золото Скачать торрент  

Мне понравился. Особо щепетильных предупрежу: озвучка с матами. Но как по мне, мат здесь не портит, а придаёт эмоциональный смысл.pb.wtf



    Дорогой пользователь! Огромная просьба, поблагодарите релизера, оцените раздачу и оставьте свои комментарий, если Вы скачали Белое золото через торрент бесплатно! Внесите свою лепту в развитие PiratBit!
    Комментировать посты могут только пользователи прошедшие не сложную регистрацию
    Показать сообщения:    

    Белое золото через торрент
    Скачать бесплатно Белое золото
    Белое золото скачать торрент
    Белое золото смотреть онлайн
    Cкачать фильм Белое золото бесплатно
    Белое золото скачать торрент в хорошем качестве
    Белое золото смотреть онлайн бесплатно в хорошем качестве


    Вы не можете начинать темы
    Вы не можете отвечать на сообщения
    Вы не можете редактировать свои сообщения
    Вы не можете удалять свои сообщения
    Вы не можете голосовать в опросах
    Вы не можете прикреплять файлы к сообщениям
    Вы можете скачивать файлы