Ребята, если до конца года каждый наш пользователь пожертвует хотя бы 10 рублей, нам хватит денег оплатить все наши расходы.

iTunes

iTunes

Миссия невыполнима: Последствия

iTunes

Поиск

4 сезон

дом

MVO

venom

iTunes

Багровая мята

iTunes

Проклятие монахини

iTunes

Человек на Луне

ИГРА 18+

pack

RePack

Battlefield V Хит недели

RePack

Assassins Creed: Odyssey
pack

RePack

Darksiders 3

iTunes 4K

Миссия невыполнима: Последствия

RePack

fifa19

!!Акция!!

Alien_RageХит недели

RePack

NEED FOR SPEED™ PAYBACK

SATRip

9 сезон

Бесстыжие 9 сезон

Все сериалы

все сериалы на PB.wtf

iTunes

Мэнди

RePack

FAR CRY 5
  

Обитель зла: Вендетта / Resident Evil: Vendetta (Таканори Цудзимото) [2017, Мультфильм, ужасы, фантастика, боевик, приключения, BDRemux 1080p] DUB [iTunes]

Обитель зла: Вендетта через торрент

Раздают: 2 [ 0 KB/s ]
Размер: 20.38 GB | Добавлен: 22 д. назад | Торрент скачан:67 раз
Скачать  

05-07-2017 11:34 Обитель зла: Вендетта Скачать торрент  

Обитель зла: Вендетта / Resident Evil: Vendetta
Год выпуска: 2017
Страна: Япония
Жанр: Мультфильм, ужасы, фантастика, боевик, детектив, приключения
Продолжительность: 01:37:14
Перевод: Дублированный | iTunes
Субтитры: Русские, английские

Режиссер: Таканори Цудзимото

rating

В ролях:

Кевин Дорман, Мэттью Мерсер, Эрин Кехилл, Кари Уолгрен, Ариф С. Кинчен, Арни Пантойя, Джон ДеМита, Кристина Валенсуела, Фред Татаскьор, Александр Полински

Описание:

Сотрудник организации по борьбе с биотерроризмом B.S.A.A. Крис Редфилд проникает в таинственный особняк, который, согласно информации, является базой контрабандистов оружием. В ходе расследования Крис сталкивается с Гленом Ариасом, преступником объявленным в международный розыск, и становится свидетелем странной картины, в результате которой упускает Ариаса.

Качество: BDRemux 1080p
Формат: MKV
Видео кодек: H.264
Аудио кодек: AC3/DTS-HD MA

Видео: MPEG-4 AVC, 1920x1080, 25.5 Мbit/s, 23.976 fps
Аудио#1: 48 kHz, AC3, 5.1, 384 Kbps | Дублированный | iTunes | RUS |
Аудио#2: 48 kHz, DTS-HD MA, 5.1, 4137 Kbps | Оригинал | ENG |



скриншот  скриншот  скриншот  скриншот  скриншот  

General
Unique ID : 226751591439343154783514088312300938225 (0xAA96C49AEE29BCAE9551FA31DBFCA3F1)
Complete name : F:VideoResident.Evil.Vendetta.2017.BDREMUX.1080p.ExKinoRay.mkv
Format : Matroska
Format version : Version 4 / Version 2
File size : 20.4 GiB
Duration : 1 h 37 min
Overall bit rate mode : Variable
Overall bit rate : 30.0 Mb/s
Encoded date : UTC 2017-07-04 12:19:28
Writing application : mkvmerge v13.0.0 ('The Juggler') 64bit
Writing library : libebml v1.3.4 + libmatroska v1.4.5

Video
ID : 1
Format : AVC
Format/Info : Advanced Video Codec
Format profile : High@L4.1
Format settings, CABAC : Yes
Format settings, ReFrames : 2 frames
Format settings, GOP : M=1, N=10
Codec ID : V_MPEG4/ISO/AVC
Duration : 1 h 37 min
Bit rate mode : Variable
Bit rate : 25.5 Mb/s
Width : 1 920 pixels
Height : 1 080 pixels
Display aspect ratio : 16:9
Frame rate mode : Constant
Frame rate : 23.976 (24000/1001) FPS
Color space : YUV
Chroma subsampling : 4:2:0
Bit depth : 8 bits
Scan type : Progressive
Bits/(Pixel*Frame) : 0.512
Stream size : 17.3 GiB (85%)
Language : English
Default : Yes
Forced : No

Audio #1
ID : 2
Format : AC-3
Format/Info : Audio Coding 3
Format settings, Endianness : Big
Codec ID : A_AC3
Duration : 1 h 37 min
Bit rate mode : Constant
Bit rate : 384 kb/s
Channel(s) : 6 channels
Channel positions : Front: L C R, Side: L R, LFE
Sampling rate : 48.0 kHz
Frame rate : 31.250 FPS (1536 spf)
Bit depth : 16 bits
Compression mode : Lossy
Stream size : 267 MiB (1%)
Title : Dub [iTunes]
Language : Russian
Service kind : Complete Main
Default : Yes
Forced : No

Audio #2
ID : 3
Format : DTS
Format/Info : Digital Theater Systems
Format profile : MA / Core
Mode : 16
Format settings, Endianness : Big
Codec ID : A_DTS
Duration : 1 h 37 min
Bit rate mode : Variable / Constant
Bit rate : 4 137 kb/s / 1 509 kb/s
Channel(s) : 6 channels
Channel positions : Front: L C R, Side: L R, LFE
Sampling rate : 48.0 kHz
Frame rate : 93.750 FPS (512 spf)
Bit depth : 24 bits
Compression mode : Lossless / Lossy
Stream size : 2.81 GiB (14%)
Title : Original
Language : English
Default : No
Forced : No

Text #1
ID : 4
Format : UTF-8
Codec ID : S_TEXT/UTF8
Codec ID/Info : UTF-8 Plain Text
Duration : 1 h 35 min
Bit rate : 48 b/s
Count of elements : 600
Stream size : 33.9 KiB (0%)
Title : Full
Language : Russian
Default : No
Forced : No

Text #2
ID : 5
Format : UTF-8
Codec ID : S_TEXT/UTF8
Codec ID/Info : UTF-8 Plain Text
Duration : 1 h 35 min
Bit rate : 28 b/s
Count of elements : 587
Stream size : 19.9 KiB (0%)
Title : Full
Language : English
Default : No
Forced : No

Menu
00:00:00.000 : en:00:00:00.000
00:01:57.492 : en:00:01:57.492
00:11:47.624 : en:00:11:47.624
00:17:51.946 : en:00:17:51.946
00:25:12.261 : en:00:25:12.261
00:31:00.567 : en:00:31:00.567
00:36:43.118 : en:00:36:43.118
00:42:49.817 : en:00:42:49.817
00:48:20.981 : en:00:48:20.981
00:53:50.853 : en:00:53:50.853
00:58:51.027 : en:00:58:51.027
01:06:58.598 : en:01:06:58.598
01:11:38.836 : en:01:11:38.836
01:15:13.050 : en:01:15:13.050
01:21:41.688 : en:01:21:41.688
01:29:38.748 : en:01:29:38.748




Скачать Обитель зла: Вендетта через торрент http://s008.radikal.ru/i306/1706/4f/9ae59cb0433c.jpg Скачать фильм Обитель зла: Вендетта через торрент бесплантно в хорошем качестве Описание: Сотрудник организации по борьбе с биотерроризмом B.S.A.A. Крис Редфилд проникает в таинственный особняк, который, согласно ... 9.2 10 12
Info! Золотая раздача, скачанное не засчитывается.
Торрент: Зарегистрирован [2018-11-26 13:04] · скачан: 67 раз
Статус: √ проверено
Размер: 20.38 GB
Как cкачать? Как скачать Обитель зла: Вендетта через торрент | qTorrent

% Раздел Тема Автор DL S | L
Иностранные мультфильмы [ 2.06 GB ] Обитель зла: Вендетта / Resident Evil: Vendetta [2017 мультфильм BDRip ] - ExKinoRay Enigma2010 Скачать
10 | 0
Иностранные мультфильмы [ 1.46 GB ] Обитель зла: Вендетта / Resident Evil: Vendetta [2017 мультфильм BDRip] - [] Twi7ter Скачать
8 | 0
Иностранные мультфильмы [ 1.42 GB ] Обитель зла: Вендетта / Resident Evil: Vendetta [2017 BDRip-AVC] bober100 Скачать
1 | 0
Зарубежные Мультфильмы (BDRip 1080p, 720p, Blu-ray, BD-Remux) [ 10.75 GB ] Обитель зла: Вендетта / Resident Evil: Vendetta [2017 Мультфильм BDRip 1080p] bober100 Скачать
3 | 0
Иностранные мультфильмы [ 1.93 GB ] Обитель зла: Вендетта / Resident Evil: Vendetta [2017 мультфильм BDRip-AVC ] - ExKinoRay Enigma2010 Скачать
1 | 0
# Зарубежные Мультфильмы (BDRip 1080p, 720p, Blu-ray, BD-Remux) [ 4.63 GB ] Обитель зла: Вендетта / Resident Evil: Vendetta [2017 мультфильм BDRip 720p] bober100 Скачать
3 | 0
Иностранные мультфильмы [ 1.37 GB ] Обитель зла: Вендетта / Resident Evil: Vendetta [2017 мультфильм HDRip] bober100 Скачать
1 | 0


Последний раз редактировалось: bober100 (2018-11-26 13:05), всего редактировалось 3 раз(а)


>> Регистрируемся здесь <<






Отзывы и комментарии о схеме читаем и пишем здесь: ---> Отзывы и комментарии о схеме

Новые благодарочки в телеграм довольных пользователей:
скриншот   скриншот   скриншот   скриншот   скриншот

05-07-2017 21:47 Обитель зла: Вендетта Скачать торрент  

СКОРОСТИ ПЛИЗ !!!!!!!!!!!!!!!!!!!!



08-07-2017 17:53 Обитель зла: Вендетта Скачать торрент  

оо, за это спасибо

UPD.
рисовка конечно на уровне, так же порадовала отсылка к первой части игры... но всё остальное.
как и фильм, начинают делать конвеер, где вроде бы вот, всё, закончите красиво, нет, вот этот вот выжил, ждите новую серию конвеера.

Предидущие части хоть как то цепляли сюжетом, историями, интересными диалогами, а тут мало того что сюжет предсказуемый, так и ещё и озвучка, чисто так:
- А давайте озвучим "это".
- А шо ита?
- Вроде в тренде, люди ждали.
- А ну лан.
Харизмы никакой, весь фильм монотонные голоса.

Короче я как фанат серии игр и комиксов сильно пригорел.
Ах да, всё вышенаписанное ИМХО.
5\10, только из за лорных персонажей и отсылки к первой части игры.



26-11-2018 12:57 Обитель зла: Вендетта Скачать торрент  

Встаньте на раздачу пожалуйста!



    Дорогой пользователь! Огромная просьба, поблагодарите релизера, оцените раздачу и оставьте свои комментарий, если Вы скачали Обитель зла: Вендетта через торрент бесплатно! Внесите свою лепту в развитие PiratBit!
    Комментировать посты могут только пользователи прошедшие не сложную регистрацию
    Показать сообщения:    

    Обитель зла: Вендетта через торрент
    Скачать бесплатно Обитель зла: Вендетта
    Обитель зла: Вендетта скачать торрент
    Обитель зла: Вендетта смотреть онлайн
    Cкачать фильм Обитель зла: Вендетта бесплатно
    Обитель зла: Вендетта скачать торрент в хорошем качестве
    Обитель зла: Вендетта смотреть онлайн бесплатно в хорошем качестве


    Вы не можете начинать темы
    Вы не можете отвечать на сообщения
    Вы не можете редактировать свои сообщения
    Вы не можете удалять свои сообщения
    Вы не можете голосовать в опросах
    Вы не можете прикреплять файлы к сообщениям
    Вы можете скачивать файлы