2 сезон

iTunes

MVO

1

2 сезон

iTunes

iTunes

1 сезон

RePack

30

Новинка

ВАЖНО

ИГРА 18+

pack

RePack

MK11
pack

Легкие деньги

RePack

jed

RePack

fifa19

RePack

RDR2

RePack

NEED FOR SPEED™ PAYBACK

4 сезон

9 сезон

Бесстыжие 9 сезон

Все сериалы

все сериалы на PB.wtf

RePack

FAR CRY 5

Anonymous, доброй ночи, мы не успеваем собрать деньги на оплату серверов за декабрь и январь, помогите нам пожалуйста в это трудное время. В качестве благодарности мы отключим Вам всю рекламу на сайте (укажите свой ник в строку Ваше имя)!

×
  
Magnet ссылка

Черная бабочка / Black Butterfly (Брайан Гудман) [2017, Триллер, BDRip-AVC] DUB [iTunes] pb.wtf

Черная бабочка через торрент pb.wtf

Размер: 1.7 GB | Добавлен: 3 года 6 мес. назад | Торрент скачан:677 раз
Скачать  

06-07-2017 04:39 Черная бабочка Скачать торрент  

Черная бабочка / Black Butterfly
Год выпуска: 2017
Страна: США
Жанр: Триллер
Продолжительность: 01:33:34
Перевод: Дубляж [iTunes]
Субтитры: английские

Режиссер: Брайан Гудман

rating

В ролях:

Джонатан Рис-Майерс, Пайпер Перабо, Антонио Бандерас, Абель Феррара, Николас Аарон, Винсент Риотта, Натали Рапти, Гомес Кэти, МакГоверн, Рэндолл Пол, Джоя Либардони

Описание:

Пол — писатель, живущий в одиноком домике на отшибе. В последнее время его дела идут не очень: заказчик забраковал его последнюю книгу, а сам он пытается забыть о неудачах с помощью алкоголя. Однако жизнь отшельника резко меняется, когда он встречает незнакомца, помогающему ему избежать потасовки в придорожном кафе. Узнав, что незнакомец путешествует налегке, Пол предлагает тому остановиться у него на ночлег. Незнакомец неожиданно проявляет интерес к писателю и предлагает новый сюжет для его книги. Но кто он такой, и что означает загадочная татуировка в виде черной бабочки на его теле.

Качество: BDRip-AVC
Формат: MKV
Видео кодек: H.264
Аудио кодек: AC3

Видео: 1024x428 (2.40:1), 23.976 fps, x264 ~1775 kbps avg, 0.169 bit/pixel
Аудио#1: 48 kHz, AC3 Dolby Digital, 3/2 (L,C,R,l,r) + LFE ch, ~384.00 kbps avg | RUS (iTunes)
Аудио#2: 48 kHz, AC3 Dolby Digital, 3/2 (L,C,R,l,r) + LFE ch, ~448.00 kbps avg | ENG
скриншот   скриншот   скриншот   скриншот   скриншот  

Общее
Уникальный идентификатор : 194644161883396719834692911132124537219 (0x926F1A1BD442C79586707C47FE5A6183)
Полное имя : D:Black.Butterfly.2017.BDRip(AVC).OlLanDGroup.mkv
Формат : Matroska
Версия формата : Version 2
Размер файла : 1,70 Гбайт
Продолжительность : 1 ч. 33 м.
Общий поток : 2605 Кбит/сек
Название фильма : Black.Butterfly.2017 #TorpedoUK#
Дата кодирования : UTC 2017-07-06 02:47:56
Программа кодирования : mkvmerge v7.8.0 ('River Man') 32bit built on Apr 3 2015 12:11:22
Библиотека кодирования : libebml v1.3.1 + libmatroska v1.4.2

Видео
Идентификатор : 1
Формат : AVC
Формат/Информация : Advanced Video Codec
Профиль формата : High@L4.1
Параметр CABAC формата : Да
Параметр ReFrames формата : 10 кадров
Идентификатор кодека : V_MPEG4/ISO/AVC
Продолжительность : 1 ч. 33 м.
Битрейт : 1775 Кбит/сек
Ширина : 1024 пикселя
Высота : 428 пикселей
Соотношение сторон : 2,40:1
Режим частоты кадров : Постоянный
Частота кадров : 23,976 (24000/1001) кадра/сек
Цветовое пространство : YUV
Субдискретизация насыщенности : 4:2:0
Битовая глубина : 8 бит
Тип развёртки : Прогрессивная
Бит/(Пиксели*Кадры) : 0.169
Размер потока : 1,13 Гбайт (66%)
Библиотека кодирования : x264 core 146 r2538 121396c
Настройки программы : cabac=1 / ref=10 / deblock=1:-3:-3 / analyse=0x3:0x133 / me=umh / subme=11 / psy=1 / psy_rd=1.00:0.07 / mixed_ref=1 / me_range=48 / chroma_me=1 / trellis=2 / 8x8dct=1 / cqm=0 / deadzone=21,11 / fast_pskip=0 / chroma_qp_offset=-3 / threads=6 / lookahead_threads=1 / sliced_threads=0 / nr=0 / decimate=0 / interlaced=0 / bluray_compat=0 / constrained_intra=0 / bframes=10 / b_pyramid=2 / b_adapt=2 / b_bias=0 / direct=3 / weightb=1 / open_gop=0 / weightp=2 / keyint=240 / keyint_min=23 / scenecut=40 / intra_refresh=0 / rc_lookahead=40 / rc=2pass / mbtree=0 / bitrate=1775 / ratetol=1.0 / qcomp=0.60 / qpmin=0 / qpmax=69 / qpstep=4 / cplxblur=20.0 / qblur=0.5 / vbv_maxrate=50000 / vbv_bufsize=62500 / nal_hrd=none / filler=0 / ip_ratio=1.40 / pb_ratio=1.30 / aq=1:1.00
Язык : English
Default : Да
Forced : Нет

Аудио #1
Идентификатор : 2
Формат : AC-3
Формат/Информация : Audio Coding 3
Расширение режима : CM (complete main)
Параметр Endianness формата : Big
Идентификатор кодека : A_AC3
Продолжительность : 1 ч. 33 м.
Вид битрейта : Постоянный
Битрейт : 384 Кбит/сек
Каналы : 6 каналов
Расположение каналов : Front: L C R, Side: L R, LFE
Частота : 48,0 КГц
Частота кадров : 31,250 кадров/сек (1536 spf)
Битовая глубина : 16 бит
Метод сжатия : С потерями
Размер потока : 257 Мбайт (15%)
Заголовок : iTunes
Язык : Russian
Default : Да
Forced : Нет

Аудио #2
Идентификатор : 3
Формат : AC-3
Формат/Информация : Audio Coding 3
Расширение режима : CM (complete main)
Параметр Endianness формата : Big
Идентификатор кодека : A_AC3
Продолжительность : 1 ч. 33 м.
Вид битрейта : Постоянный
Битрейт : 448 Кбит/сек
Каналы : 6 каналов
Расположение каналов : Front: L C R, Side: L R, LFE
Частота : 48,0 КГц
Частота кадров : 31,250 кадров/сек (1536 spf)
Битовая глубина : 16 бит
Метод сжатия : С потерями
Размер потока : 300 Мбайт (17%)
Заголовок : Original
Язык : English
Default : Нет
Forced : Нет

Текст
Идентификатор : 4
Формат : UTF-8
Идентификатор кодека : S_TEXT/UTF8
Идентификатор кодека/Информация : UTF-8 Plain Text
Заголовок : Full
Язык : English
Default : Нет
Forced : Нет

Меню
00:00:00.000 : en:00:00:00.000
00:14:32.955 : en:00:14:32.955
00:31:35.519 : en:00:31:35.519
00:41:58.808 : en:00:41:58.808
00:52:07.416 : en:00:52:07.416
01:03:54.539 : en:01:03:54.539
01:14:47.525 : en:01:14:47.525
01:28:36.978 : en:01:28:36.978

pb.wtf



Скачать Черная бабочка через торрент http://lostpix.com/img/2017-07/06/p8k4x0zvy3xwmi0xjpx8cjd4p.jpg Скачать фильм Черная бабочка через торрент бесплантно в хорошем качестве Описание: Пол — писатель, живущий в одиноком домике на отшибе. В последнее время его дела идут не очень: заказчик забраковал его последнюю ... 9.4 10 15
Торрент: Зарегистрирован [2017-07-06 04:39] · скачан: 677 раз
Статус: √ проверено
Размер: 1.7 GB
Как cкачать? Как скачать Черная бабочка через торрент | UTorrent

% Раздел Тема Автор DL S | L
Фильмы [HD 720p, 1080p] (Хороший звук DUB, MVO) [ 6.57 GB ] Черная бабочка / Black Butterfly [2017 BDRip 1080p] Dub potroks Скачать
1 | 0
Фильмы без перевода [ 22.72 GB ] Черная бабочка / Black Butterfly [2016 BDRemux] [Оригинал-ENG] smaster Скачать
1 | 0
Фильмы 2017 [DVDrip, WEB-DLRip, HDrip] (DUB, MVO) [ 1.42 GB ] Черная бабочка / Black Butterfly [2017 BDRip] - Twi7ter Скачать
1 | 0
Фильмы 2017 [DVDrip, WEB-DLRip, HDrip] (DUB, MVO) [ 1.44 GB ] Черная бабочка / Black Butterfly [2017 BDRip-AVC] - ExKinoRay Enigma2010 Скачать
1 | 0
Фильмы [HD 720p, 1080p] (Хороший звук DUB, MVO) [ 9.82 GB ] Черная бабочка / Black Butterfly [2017 BDRip 1080p] bober100 Скачать
1 | 0
Фильмы 2017 [DVDrip, WEB-DLRip, HDrip] (DUB, MVO) [ 746 MB ] Черная бабочка / Black Butterfly [2017 BDRip] bober100 Скачать
1 | 0
Фильмы 2017 [DVDrip, WEB-DLRip, HDrip] (DUB, MVO) [ 1.42 GB ] Черная бабочка / Black Butterfly [2017 BDRip |DUB- ] Ворон Скачать
1 | 0

28-11-2019 20:33  

Отключить всю рекламу на сайте

06-07-2017 08:31 Черная бабочка Скачать торрент  

Очень неожиданное развитие сюжета - Вырезано. Рекомендую к просмотру, и благодарочка за релизеру.pb.wtf



06-07-2017 08:32 Черная бабочка Скачать торрент  

Всё же заценим из за Бандеросаpb.wtf



06-07-2017 20:58 Черная бабочка Скачать торрент  

Можно уже и не смотреть, даун 007 нам уже все рассказал.pb.wtf



    Дорогой пользователь! Огромная просьба, поблагодарите релизера, оцените раздачу и оставьте свои комментарий, если Вы скачали Черная бабочка через торрент бесплатно! Внесите свою лепту в развитие PiratBit!
    Комментировать посты могут только пользователи прошедшие не сложную регистрацию
    Показать сообщения:    

    Черная бабочка через торрент
    Скачать бесплатно Черная бабочка
    Черная бабочка скачать торрент
    Черная бабочка смотреть онлайн
    Cкачать фильм Черная бабочка бесплатно
    Черная бабочка скачать торрент в хорошем качестве
    Черная бабочка смотреть онлайн бесплатно в хорошем качестве


    Вы не можете начинать темы
    Вы не можете отвечать на сообщения
    Вы не можете редактировать свои сообщения
    Вы не можете удалять свои сообщения
    Вы не можете голосовать в опросах
    Вы не можете прикреплять файлы к сообщениям
    Вы можете скачивать файлы