2 сезон

iTunes

MVO

1

2 сезон

iTunes

iTunes

1 сезон

RePack

30

Ultimate

ВАЖНО

ИГРА 18+

pack

RePack

MK11
pack

Легкие деньги

RePack

jed

RePack

fifa19

RePack

RDR2

RePack

NEED FOR SPEED™ PAYBACK

4 сезон

9 сезон

Бесстыжие 9 сезон

Все сериалы

все сериалы на PB.wtf

RePack

FAR CRY 5

Anonymous, доброе утро, мы не успеваем собрать деньги на оплату серверов за декабрь и январь, помогите нам пожалуйста в это трудное время. В качестве благодарности мы отключим Вам всю рекламу на сайте (укажите свой ник в строку Ваше имя)!

×
  
Magnet ссылка

Прочь / Get Out (Джордан Пил) [2017, Ужасы, детектив, BDRip-AVC] [iTunes] DUB+MVO [AlexFilm] pb.wtf

Прочь через торрент pb.wtf

Размер: 2.13 GB | Добавлен: 3 года 6 мес. назад | Торрент скачан:224 раза
Скачать  

06-07-2017 04:56 Прочь Скачать торрент  

Прочь / Get Out
Год выпуска: 2017
Страна: США
Жанр: Ужасы, детектив
Продолжительность: 01:44:05
Перевод: Дублированный (iTunes) | Профессиональный (многоголосый, закадровый) [AlexFilm]
Субтитры: Русские, английские

Режиссер: Джордан Пил

rating

В ролях:

Дэниэл Калуя, Эллисон Уильямс, Кэтрин Кинер, Брэдли Уитфорд, Калеб Лэндри Джонс, Маркус Хендерсон, Бетти Гэбриел, Лейкит Стэнфилд, Стивен Рут, Лил Релл

Описание:

Один правильный темнокожий паренек полюбил белую девушку. А она отвезла его к своим родителям в уединенный дом колониального стиля на берегу живописного озера. Знакомство прошло просто замечательно. Папа оказался практикующим хирургом, а мама - не менее замечательным специалистом по промывке мозгов. Паренька буквально окружают заботой и вниманием милые, симпатичные господа из южной элиты, медленно сужая кольцо. Тем не менее, дорогого гостя начинают терзать смутные сомнения, плавно перетекающие в дискомфорт, душевные муки и боль.

Качество: BDRip-AVC
Формат: MKV
Видео кодек: H.264
Аудио кодек: AC3

Видео: 1024x426 (2.40:1), 23.976 fps, x264 ~1645 kbps avg, 0.157 bit/pixel
Аудио#1: 48 kHz, AC3 Dolby Digital, 3/2 (L,C,R,l,r) + LFE ch, ~384.00 kbps avg | RUS (iTunes)
Аудио#2: 48 kHz, AC3 Dolby Digital, 3/2 (L,C,R,l,r) + LFE ch, ~448.00 kbps avg | RUS (AlexFilm)
Аудио#3: 48 kHz, AC3 Dolby Digital, 3/2 (L,C,R,l,r) + LFE ch, ~448.00 kbps avg | ENG
скриншот   скриншот   скриншот   скриншот   скриншот  

Общее
Уникальный идентификатор : 229047548075670632491953977168331513449 (0xAC50F401D16A49FEAEE4D19820079E69)
Полное имя : D:Get.Out.2017.BDRip(AVC).OlLanDGroup.mkv
Формат : Matroska
Версия формата : Version 2
Размер файла : 2,13 Гбайт
Продолжительность : 1 ч. 44 м.
Общий поток : 2926 Кбит/сек
Название фильма : Get.Out.2017 #TorpedoUK#
Дата кодирования : UTC 2017-07-06 03:19:12
Программа кодирования : mkvmerge v7.8.0 ('River Man') 32bit built on Apr 3 2015 12:11:22
Библиотека кодирования : libebml v1.3.1 + libmatroska v1.4.2

Видео
Идентификатор : 1
Формат : AVC
Формат/Информация : Advanced Video Codec
Профиль формата : High@L4.1
Параметр CABAC формата : Да
Параметр ReFrames формата : 10 кадров
Идентификатор кодека : V_MPEG4/ISO/AVC
Продолжительность : 1 ч. 44 м.
Битрейт : 1645 Кбит/сек
Ширина : 1024 пикселя
Высота : 426 пикселей
Соотношение сторон : 2,40:1
Режим частоты кадров : Постоянный
Частота кадров : 23,976 (24000/1001) кадра/сек
Цветовое пространство : YUV
Субдискретизация насыщенности : 4:2:0
Битовая глубина : 8 бит
Тип развёртки : Прогрессивная
Бит/(Пиксели*Кадры) : 0.157
Размер потока : 1,15 Гбайт (54%)
Библиотека кодирования : x264 core 146 r2538 121396c
Настройки программы : cabac=1 / ref=10 / deblock=1:-3:-3 / analyse=0x3:0x133 / me=umh / subme=11 / psy=1 / psy_rd=1.00:0.07 / mixed_ref=1 / me_range=48 / chroma_me=1 / trellis=2 / 8x8dct=1 / cqm=0 / deadzone=21,11 / fast_pskip=0 / chroma_qp_offset=-3 / threads=6 / lookahead_threads=1 / sliced_threads=0 / nr=0 / decimate=0 / interlaced=0 / bluray_compat=0 / constrained_intra=0 / bframes=10 / b_pyramid=2 / b_adapt=2 / b_bias=0 / direct=3 / weightb=1 / open_gop=0 / weightp=2 / keyint=240 / keyint_min=23 / scenecut=40 / intra_refresh=0 / rc_lookahead=40 / rc=2pass / mbtree=0 / bitrate=1645 / ratetol=1.0 / qcomp=0.60 / qpmin=0 / qpmax=69 / qpstep=4 / cplxblur=20.0 / qblur=0.5 / vbv_maxrate=50000 / vbv_bufsize=62500 / nal_hrd=none / filler=0 / ip_ratio=1.40 / pb_ratio=1.30 / aq=1:1.00
Язык : English
Default : Да
Forced : Нет
Statistics Tags Issue : mkvmerge v11.0.0 ('Alive') 64bit 2017-05-14 11:27:08 / mkvmerge v7.8.0 ('River Man') 32bit built on Apr 3 2015 12:11:22 2017-07-06 03:19:12
FromStats_BitRate : 1643828
FromStats_Duration : 01:44:05.114000000
FromStats_FrameCount : 149733
FromStats_StreamSize : 1283237199

Аудио #1
Идентификатор : 2
Формат : AC-3
Формат/Информация : Audio Coding 3
Расширение режима : CM (complete main)
Параметр Endianness формата : Big
Идентификатор кодека : A_AC3
Продолжительность : 1 ч. 44 м.
Вид битрейта : Постоянный
Битрейт : 384 Кбит/сек
Каналы : 6 каналов
Расположение каналов : Front: L C R, Side: L R, LFE
Частота : 48,0 КГц
Частота кадров : 31,250 кадров/сек (1536 spf)
Битовая глубина : 16 бит
Метод сжатия : С потерями
Размер потока : 286 Мбайт (13%)
Заголовок : iTunes
Язык : Russian
Default : Да
Forced : Нет

Аудио #2
Идентификатор : 3
Формат : AC-3
Формат/Информация : Audio Coding 3
Расширение режима : CM (complete main)
Параметр Endianness формата : Big
Идентификатор кодека : A_AC3
Продолжительность : 1 ч. 44 м.
Вид битрейта : Постоянный
Битрейт : 448 Кбит/сек
Каналы : 6 каналов
Расположение каналов : Front: L C R, Side: L R, LFE
Частота : 48,0 КГц
Частота кадров : 31,250 кадров/сек (1536 spf)
Битовая глубина : 16 бит
Метод сжатия : С потерями
Размер потока : 334 Мбайт (15%)
Заголовок : AlexFilm
Язык : Russian
Default : Нет
Forced : Нет
Statistics Tags Issue : mkvmerge v11.0.0 ('Alive') 64bit 2017-05-14 11:27:08 / mkvmerge v7.8.0 ('River Man') 32bit built on Apr 3 2015 12:11:22 2017-07-06 03:19:12
FromStats_BitRate : 448000
FromStats_Duration : 01:44:05.216000000
FromStats_FrameCount : 195163
FromStats_StreamSize : 349732096

Аудио #3
Идентификатор : 4
Формат : AC-3
Формат/Информация : Audio Coding 3
Расширение режима : CM (complete main)
Параметр Endianness формата : Big
Идентификатор кодека : A_AC3
Продолжительность : 1 ч. 44 м.
Вид битрейта : Постоянный
Битрейт : 448 Кбит/сек
Каналы : 6 каналов
Расположение каналов : Front: L C R, Side: L R, LFE
Частота : 48,0 КГц
Частота кадров : 31,250 кадров/сек (1536 spf)
Битовая глубина : 16 бит
Метод сжатия : С потерями
Размер потока : 334 Мбайт (15%)
Заголовок : Original
Язык : English
Default : Нет
Forced : Нет
Statistics Tags Issue : mkvmerge v11.0.0 ('Alive') 64bit 2017-05-14 11:27:08 / mkvmerge v7.8.0 ('River Man') 32bit built on Apr 3 2015 12:11:22 2017-07-06 03:19:12
FromStats_BitRate : 448000
FromStats_Duration : 01:44:05.184000000
FromStats_FrameCount : 195162
FromStats_StreamSize : 349730304

Текст #1
Идентификатор : 5
Формат : UTF-8
Идентификатор кодека : S_TEXT/UTF8
Идентификатор кодека/Информация : UTF-8 Plain Text
Язык : Russian
Default : Нет
Forced : Нет
Statistics Tags Issue : mkvmerge v11.0.0 ('Alive') 64bit 2017-05-14 11:27:08 / mkvmerge v7.8.0 ('River Man') 32bit built on Apr 3 2015 12:11:22 2017-07-06 03:19:12
FromStats_BitRate : 72
FromStats_Duration : 01:39:32.645000000
FromStats_FrameCount : 856
FromStats_StreamSize : 53829

Текст #2
Идентификатор : 6
Формат : UTF-8
Идентификатор кодека : S_TEXT/UTF8
Идентификатор кодека/Информация : UTF-8 Plain Text
Заголовок : Full
Язык : English
Default : Нет
Forced : Нет
Statistics Tags Issue : mkvmerge v11.0.0 ('Alive') 64bit 2017-05-14 11:27:08 / mkvmerge v7.8.0 ('River Man') 32bit built on Apr 3 2015 12:11:22 2017-07-06 03:19:12
FromStats_BitRate : 50
FromStats_Duration : 01:38:45.386000000
FromStats_FrameCount : 1232
FromStats_StreamSize : 37121

Меню
00:00:00.000 : en:00:00:00.000
00:04:52.834 : en:00:04:52.834
00:10:13.530 : en:00:10:13.530
00:14:02.258 : en:00:14:02.258
00:19:07.480 : en:00:19:07.480
00:21:49.433 : en:00:21:49.433
00:26:07.357 : en:00:26:07.357
00:30:51.016 : en:00:30:51.016
00:37:19.487 : en:00:37:19.487
00:42:16.868 : en:00:42:16.868
00:48:03.172 : en:00:48:03.172
00:54:13.584 : en:00:54:13.584
00:57:38.288 : en:00:57:38.288
01:03:33.810 : en:01:03:33.810
01:10:48.911 : en:01:10:48.911
01:15:36.365 : en:01:15:36.365
01:22:02.543 : en:01:22:02.543
01:26:13.418 : en:01:26:13.418
01:32:24.414 : en:01:32:24.414
01:40:22.391 : en:01:40:22.391

pb.wtf



Скачать Прочь через торрент http://s019.radikal.ru/i637/1707/0d/70fa9b89a1ce.jpg Скачать фильм Прочь через торрент бесплантно в хорошем качестве Описание: Один правильный темнокожий паренек полюбил белую девушку. А она отвезла его к своим родителям в уединенный дом колониального ... 8.2 10 6
Торрент: Зарегистрирован [2017-07-06 04:56] · скачан: 224 раз
Статус: √ проверено
Размер: 2.13 GB
Как cкачать? Как скачать Прочь через торрент | UTorrent

% Раздел Тема Автор DL S | L
Фильмы с авторской озвучкой [ 1.47 GB ] Прочь / Get Out [2017 BDRip] [AVO] killermax2013 Скачать
1 | 0
Фильмы до 2000 г. [ 934 MB ] Укуренные 7 / Прочь из моей комнаты! / Get Out of My Room [1985 музыка DVDRip] VO killermax2013 Скачать
1 | 0
Фильмы (Blu-ray, BD-Remux, HDDVD) [ 39.65 GB ] Прочь / Get Out [2017 Blu-Ray CEE 1080p] Russian Mafia Скачать
1 | 0
Фильмы [HD 720p, 1080p] (Хороший звук DUB, MVO) [ 2.36 GB ] Прочь / Get Out [2017 BDRip 1080p HEVC ()] Мичман37 Скачать
2 | 0
Ultra HD (UHD: 2K, 4K, 8K) — видео сверхвысокой чёткости [ 12.57 GB ] Прочь / Get Out [2017 UHD BDRip 2160p] DUB + MVO [AlexFilm] + AVO [M. Яроцкий] sheker187 Скачать
2 | 0
R.G. Resident & PiratVoice - Фильмы, Видео [ 5.65 GB ] Прочь / Get Out [2017 BDRip 720p] - + MVO + AVO - R.G.Resident schultz Скачать
1 | 0
Ultra HD (UHD: 2K, 4K, 8K) — видео сверхвысокой чёткости [ 61.91 GB ] Прочь / Get Out [2017 UHD BDRemux 2160p] MVO [AlexFilm] +2xAVO [Яроцкий Назаров] +DUB [] bober100 Скачать
1 | 0

28-11-2019 20:33  

Отключить всю рекламу на сайте

06-07-2017 08:31 Прочь Скачать торрент  

Что то хвалят егоpb.wtf



    Дорогой пользователь! Огромная просьба, поблагодарите релизера, оцените раздачу и оставьте свои комментарий, если Вы скачали Прочь через торрент бесплатно! Внесите свою лепту в развитие PiratBit!
    Комментировать посты могут только пользователи прошедшие не сложную регистрацию
    Показать сообщения:    

    Прочь через торрент
    Скачать бесплатно Прочь
    Прочь скачать торрент
    Прочь смотреть онлайн
    Cкачать фильм Прочь бесплатно
    Прочь скачать торрент в хорошем качестве
    Прочь смотреть онлайн бесплатно в хорошем качестве


    Вы не можете начинать темы
    Вы не можете отвечать на сообщения
    Вы не можете редактировать свои сообщения
    Вы не можете удалять свои сообщения
    Вы не можете голосовать в опросах
    Вы не можете прикреплять файлы к сообщениям
    Вы можете скачивать файлы