Ссылка на приватное зеркало нашего сайта всего за 1$. Внимание количество ограничено!!!

2 сезон

iTunes

1 сезон

1

iTunes

iTunes

iTunes

1 сезон

RePack

30

ИГРА 18+

pack

ВАЖНО

!!Акция!!

Alien_RageХит недели

RePack

MK11
pack

Забери бонус

RePack

jed

!!Акция!!

Alien_Rage

RePack

fifa19

RePack

Assassins Creed: Odyssey

RePack

NEED FOR SPEED™ PAYBACK

4 сезон

9 сезон

Бесстыжие 9 сезон

Все сериалы

все сериалы на PB.wtf

RePack

FAR CRY 5
  

Зомби по имени Шон / Shaun of the Dead (Эдгар Райт) [2004, ужасы, комедия, BDRip 1080p by msltel] 3 x MVO pb.wtf

Зомби по имени Шон через торрент pb.wtf

Размер: 11.3 GB | Добавлен: 3 года 3 мес. назад | Торрент скачан:34 раза
Скачать  

06-07-2017 09:23 Зомби по имени Шон Скачать торрент  

Название: Зомби по имени Шон
Оригинальное название: Shaun of the Dead
Год выпуска: 2004
Страна: Франция, Великобритания
Жанр: ужасы, комедия
Продолжительность: 01:39:20
Перевод: профессиональный многоголосый

Режиссер: Эдгар Райт
В ролях: Саймон Пегг, Кейт Эшфилд, Ник Фрост, Люси Дэвис, Дилан Моран, Николя Каннингэм, Кейр Миллс, Мэтт Джейнс, Гэвин Фергюсон, Питер Серафинович, Рейф Сполл, Саманта Дэй, Триша Годдар, Дэвид Парк, Финола Джерати, Билл Найи, Роберт Фитч

Описание: Жизнь Шона похожа на бесконечный тоскливый сон: нудная работа, бытовые дрязги, разборки с подружкой и проблемы с мамой. Единственная отдушина нашего парня — местная пивная, где он после работы «заседает» со своим другом по имени Эд... Вы не поверите, но мертвецы залежались в могилах, они решили разнообразить своё скучное существование и решили прошвырнуться по городу, чтобы полакомиться свежей живой плотью! Начинается зомби-эпидемия с участием огромного количества распоясавшихся живых трупов, которые весьма проголодались и страстно жаждут погрызть человеческое мяско! И кто, как Вы думаете, сможет положить конец зловещему рассвету мертвецов? Конечно же Шон. Он ради такого случая "восстал" с дивана, вооружился битой и приготовился надавать зомби основательных тумаков! Теперь наш новоявленный супергерой должен спасти не только человечество, но и …свою коллекцию грампластинок!...



Качество: BDRip 1080p
Формат: MKV
Видео: MPEG-4 AVC, 12.3 Mбит/с, 1874x820
Аудио 1: русский, DTS, 768 kbps, 6 ch, 48 kHz [профессиональный многоголосый, Blu-Ray EUR]
Аудио 2: русский, AC3, 224 kbps, 2 ch, 48 kHz [профессиональный многоголосый, OPT]
Аудио 3: русский, DTS, 1509 kbps, 6 ch, 48 kHz [профессиональный многоголосый, Tycoon]
Аудио 4: английский, DTS, 1509 kbps, 6 ch, 48 kHz [оригинал]
Субтитры 1: русские
Субтитры 2: английские
Имеются неименованные главы/чаптеры.
Общее
Уникальный идентификатор : 244333195713762764127921298960929390786 (0xB7D0DC9F240D1444B911BFCEA43E00C2)
Полное имя : D:\Video\Зомби по имени Шон.2004.BDRip.1080p by msltel.mkv
Формат : Matroska
Версия формата : Version 4 / Version 2
Размер файла : 11,3 Гбайт
Продолжительность : 1 ч. 39 м.
Общий поток : 16,3 Мбит/сек
Название фильма : Rip by msltel
Дата кодирования : UTC 2017-07-06 01:50:32
Программа кодирования : mkvmerge v8.2.0 ('World of Adventure') 64bit
Библиотека кодирования : libebml v1.3.1 + libmatroska v1.4.2

Видео
Идентификатор : 1
Формат : AVC
Формат/Информация : Advanced Video Codec
Профиль формата : High@L4.1
Параметр CABAC формата : Да
Параметр ReFrames формата : 4 кадра
Идентификатор кодека : V_MPEG4/ISO/AVC
Продолжительность : 1 ч. 39 м.
Битрейт : 12,3 Мбит/сек
Ширина : 1874 пикселя
Высота : 820 пикселей
Соотношение сторон : 2,25:1
Режим частоты кадров : Постоянный
Частота кадров : 23,976 (24000/1001) кадра/сек
Цветовое пространство : YUV
Субдискретизация насыщенности : 4:2:0
Битовая глубина : 8 бит
Тип развёртки : Прогрессивная
Бит/(Пиксели*Кадры) : 0.333
Размер потока : 8,52 Гбайт (75%)
Библиотека кодирования : x264 core 146 r2538 121396c
Настройки программы : cabac=1 / ref=4 / deblock=1:-3:-2 / analyse=0x3:0x113 / me=umh / subme=11 / psy=1 / psy_rd=1.00:0.15 / mixed_ref=1 / me_range=32 / chroma_me=1 / trellis=2 / 8x8dct=1 / cqm=0 / deadzone=21,11 / fast_pskip=0 / chroma_qp_offset=-3 / threads=6 / lookahead_threads=1 / sliced_threads=0 / nr=0 / decimate=1 / interlaced=0 / bluray_compat=0 / constrained_intra=0 / bframes=8 / b_pyramid=2 / b_adapt=2 / b_bias=0 / direct=1 / weightb=1 / open_gop=0 / weightp=2 / keyint=230 / keyint_min=23 / scenecut=40 / intra_refresh=0 / rc_lookahead=40 / rc=crf / mbtree=0 / crf=19.7 / qcomp=0.60 / qpmin=0 / qpmax=69 / qpstep=4 / vbv_maxrate=62500 / vbv_bufsize=78125 / crf_max=0.0 / nal_hrd=none / filler=0 / ip_ratio=1.40 / pb_ratio=1.30 / aq=1:1.00
Язык : English
Default : Да
Forced : Нет

Аудио #1
Идентификатор : 2
Формат : DTS
Формат/Информация : Digital Theater Systems
Режим : 16
Параметр Endianness формата : Big
Идентификатор кодека : A_DTS
Продолжительность : 1 ч. 39 м.
Вид битрейта : Постоянный
Битрейт : 768 Кбит/сек
Каналы : 6 каналов
Расположение каналов : Front: L C R, Side: L R, LFE
Частота : 48,0 КГц
Частота кадров : 93,750 кадра/сек (512 spf)
Битовая глубина : 16 бит
Метод сжатия : С потерями
Размер потока : 546 Мбайт (5%)
Заголовок : MVO (Blu-Ray EUR)
Язык : Russian
Default : Да
Forced : Нет

Аудио #2
Идентификатор : 3
Формат : AC-3
Формат/Информация : Audio Coding 3
Параметр Endianness формата : Big
Идентификатор кодека : A_AC3
Продолжительность : 1 ч. 39 м.
Вид битрейта : Постоянный
Битрейт : 224 Кбит/сек
Каналы : 2 канала
Расположение каналов : Front: L R
Частота : 48,0 КГц
Частота кадров : 31,250 кадров/сек (1536 spf)
Битовая глубина : 16 бит
Метод сжатия : С потерями
Размер потока : 159 Мбайт (1%)
Заголовок : MVO (OPT)
Язык : Russian
ServiceKind/String : Complete Main
Default : Нет
Forced : Нет

Аудио #3
Идентификатор : 4
Формат : DTS
Формат/Информация : Digital Theater Systems
Режим : 16
Параметр Endianness формата : Big
Идентификатор кодека : A_DTS
Продолжительность : 1 ч. 39 м.
Вид битрейта : Постоянный
Битрейт : 1509 Кбит/сек
Каналы : 6 каналов
Расположение каналов : Front: L C R, Side: L R, LFE
Частота : 48,0 КГц
Частота кадров : 93,750 кадра/сек (512 spf)
Битовая глубина : 24 бит
Метод сжатия : С потерями
Размер потока : 1,05 Гбайт (9%)
Заголовок : MVO (Tycoon)
Язык : Russian
Default : Нет
Forced : Нет

Аудио #4
Идентификатор : 5
Формат : DTS
Формат/Информация : Digital Theater Systems
Режим : 16
Параметр Endianness формата : Big
Идентификатор кодека : A_DTS
Продолжительность : 1 ч. 39 м.
Вид битрейта : Постоянный
Битрейт : 1509 Кбит/сек
Каналы : 6 каналов
Расположение каналов : Front: L C R, Side: L R, LFE
Частота : 48,0 КГц
Частота кадров : 93,750 кадра/сек (512 spf)
Битовая глубина : 24 бит
Метод сжатия : С потерями
Размер потока : 1,05 Гбайт (9%)
Заголовок : original
Язык : English
Default : Нет
Forced : Нет

Текст #1
Идентификатор : 6
Формат : UTF-8
Идентификатор кодека : S_TEXT/UTF8
Идентификатор кодека/Информация : UTF-8 Plain Text
Продолжительность : 1 ч. 38 м.
Битрейт : 112 бит/сек
ElementCount : 1266
Размер потока : 80,7 Кбайт (0%)
Заголовок : русские
Язык : Russian
Default : Нет
Forced : Нет

Текст #2
Идентификатор : 7
Формат : UTF-8
Идентификатор кодека : S_TEXT/UTF8
Идентификатор кодека/Информация : UTF-8 Plain Text
Продолжительность : 1 ч. 34 м.
Битрейт : 75 бит/сек
ElementCount : 1610
Размер потока : 52,5 Кбайт (0%)
Заголовок : английские
Язык : English
Default : Нет
Forced : Нет

Меню
00:00:00.000 : :Chapter 01
00:03:35.048 : :Chapter 02
00:05:02.885 : :Chapter 03
00:07:26.570 : :Chapter 04
00:08:52.490 : :Chapter 05
00:12:14.942 : :Chapter 06
00:13:50.538 : :Chapter 07
00:15:58.957 : :Chapter 08
00:18:26.855 : :Chapter 09
00:21:48.515 : :Chapter 10
00:25:34.991 : :Chapter 11
00:28:43.388 : :Chapter 12
00:30:53.268 : :Chapter 13
00:33:05.775 : :Chapter 14
00:35:23.871 : :Chapter 15
00:36:59.592 : :Chapter 16
00:39:33.704 : :Chapter 17
00:40:34.931 : :Chapter 18
00:42:11.070 : :Chapter 19
00:46:04.553 : :Chapter 20
00:47:41.190 : :Chapter 21
00:48:35.996 : :Chapter 22
00:51:32.964 : :Chapter 23
00:55:00.672 : :Chapter 24
00:56:49.239 : :Chapter 25
00:58:04.564 : :Chapter 26
01:00:09.147 : :Chapter 27
01:04:20.398 : :Chapter 28
01:07:50.483 : :Chapter 29
01:10:42.947 : :Chapter 30
01:13:57.349 : :Chapter 31
01:16:39.428 : :Chapter 32
01:21:23.295 : :Chapter 33
01:25:24.828 : :Chapter 34
01:29:58.393 : :Chapter 35
01:31:36.490 : :Chapter 36
01:33:47.662 : :Chapter 37
01:39:19.870 : :Chapter 38
pb.wtf



Скачать Зомби по имени Шон через торрент http://hostpic.gq/img/2017-07/05/3in5hqiqf087gnjlhabfxhxs5.jpg Скачать фильм Зомби по имени Шон через торрент бесплантно в хорошем качестве Описание: Жизнь Шона похожа на бесконечный тоскливый сон: нудная работа, бытовые дрязги, разборки с подружкой и проблемы с мамой. ... 10 10 7
Info! Золотая раздача, скачанное не засчитывается.
Торрент: Зарегистрирован [2017-07-06 09:23] · скачан: 34 раз
Статус: √ проверено
Размер: 11.3 GB
Как cкачать? Как скачать Зомби по имени Шон через торрент | qTorrent

% Раздел Тема Автор DL S | L
Фильмы [HD 720p, 1080p] (Хороший звук DUB, MVO) [ 4.42 GB ] Зомби по имени Шон / Shaun of the Dead [2004 BDRip 720p by msltel] 3 x MVO msltel Скачать
1 | 0

28-11-2019 20:33  

Отключить всю рекламу на сайте

06-07-2017 18:02 Зомби по имени Шон Скачать торрент  

суперский фильм pb.wtf



    Дорогой пользователь! Огромная просьба, поблагодарите релизера, оцените раздачу и оставьте свои комментарий, если Вы скачали Зомби по имени Шон через торрент бесплатно! Внесите свою лепту в развитие PiratBit!
    Комментировать посты могут только пользователи прошедшие не сложную регистрацию
    Показать сообщения:    

    Зомби по имени Шон через торрент
    Скачать бесплатно Зомби по имени Шон
    Зомби по имени Шон скачать торрент
    Зомби по имени Шон смотреть онлайн
    Cкачать фильм Зомби по имени Шон бесплатно
    Зомби по имени Шон скачать торрент в хорошем качестве
    Зомби по имени Шон смотреть онлайн бесплатно в хорошем качестве


    Вы не можете начинать темы
    Вы не можете отвечать на сообщения
    Вы не можете редактировать свои сообщения
    Вы не можете удалять свои сообщения
    Вы не можете голосовать в опросах
    Вы не можете прикреплять файлы к сообщениям
    Вы можете скачивать файлы