2 сезон

iTunes

1 сезон

1

iTunes

iTunes

iTunes

1 сезон

RePack

30

ИГРА 18+

pack

ВАЖНО

!!Акция!!

Alien_RageХит недели

RePack

MK11
pack

Забери бонус

RePack

jed

!!Акция!!

Alien_Rage

RePack

fifa19

RePack

Assassins Creed: Odyssey

RePack

NEED FOR SPEED™ PAYBACK

4 сезон

9 сезон

Бесстыжие 9 сезон

Все сериалы

все сериалы на PB.wtf

RePack

FAR CRY 5
  

Черная бабочка / Black Butterfly (Брайан Гудман) [2017, Триллер, BDRip 1080p] DUB [iTunes] pb.wtf

Черная бабочка через торрент pb.wtf

Размер: 9.82 GB | Добавлен: 3 года 3 мес. назад | Торрент скачан:310 раз
Скачать  

06-07-2017 11:40 Черная бабочка Скачать торрент  

Черная бабочка / Black Butterfly
Год выпуска: 2017
Страна: США
Жанр: Триллер
Продолжительность: 01:33:34
Перевод: Дубляж [iTunes]
Субтитры: английские

Режиссер: Брайан Гудман

rating

В ролях:

Джонатан Рис-Майерс, Пайпер Перабо, Антонио Бандерас, Абель Феррара, Николас Аарон, Винсент Риотта, Натали Рапти, Гомес Кэти, МакГоверн, Рэндолл Пол, Джоя Либардони

Описание:

Пол - писатель, живущий в одиноком домике на отшибе. В последнее время его дела идут не очень: заказчик забраковал его последнюю книгу, а сам он пытается забыть о неудачах с помощью алкоголя. Однако жизнь отшельника резко меняется, когда он встречает незнакомца, помогающему ему избежать потасовки в придорожном кафе. Узнав, что незнакомец путешествует налегке, Пол предлагает тому остановиться у него на ночлег. Незнакомец неожиданно проявляет интерес к писателю и предлагает новый сюжет для его книги. Но кто он такой, и что означает загадочная татуировка в виде черной бабочки на его теле.

Качество: BDRip 1080p
Формат: MKV
Видео кодек: H.264
Аудио кодек: AC3

Видео: MPEG-4 AVC, 1920x804, 14.0 Mbit/s, 23.976 fps
Аудио#1: 48 kHz, AC3, 5.1, 384 Kbps | Дублированный | iTunes | RUS |
Аудио#2: 48 kHz, AC3, 5.1, 640 Kbps | Оригинал | ENG |


скриншот   скриншот   скриншот   скриншот   скриншот  

General
Unique ID : 249273904058410370302546427423595329145 (0xBB886859A7E88A9A9A432E9064267679)
Complete name : C:UsersbattiDesktopBlack.Butterfly.2017.BDRip.1080p.ExKinoRay.mkv
Format : Matroska
Format version : Version 4 / Version 2
File size : 9.82 GiB
Duration : 1 h 33 min
Overall bit rate mode : Variable
Overall bit rate : 15.0 Mb/s
Encoded date : UTC 2017-07-05 20:09:56
Writing application : mkvmerge v13.0.0 ('The Juggler') 64bit
Writing library : libebml v1.3.4 + libmatroska v1.4.5

Video
ID : 1
Format : AVC
Format/Info : Advanced Video Codec
Format profile : High@L4.1
Format settings, CABAC : Yes
Format settings, ReFrames : 4 frames
Codec ID : V_MPEG4/ISO/AVC
Duration : 1 h 33 min
Bit rate mode : Variable
Bit rate : 14.0 Mb/s
Maximum bit rate : 62.5 Mb/s
Width : 1 920 pixels
Height : 804 pixels
Display aspect ratio : 2.40:1
Frame rate mode : Constant
Frame rate : 23.976 (24000/1001) FPS
Color space : YUV
Chroma subsampling : 4:2:0
Bit depth : 8 bits
Scan type : Progressive
Bits/(Pixel*Frame) : 0.378
Stream size : 9.15 GiB (93%)
Writing library : x264 core 142 r2431+42 c69a006 tMod [8-bit@all X86_64]
Encoding settings : cabac=1 / ref=5 / deblock=1:-3:-3 / analyse=0x3:0x133 / me=umh / subme=11 / psy=1 / fade_compensate=0.00 / psy_rd=1.00:1.00 / mixed_ref=1 / me_range=48 / chroma_me=1 / trellis=2 / 8x8dct=1 / cqm=0 / deadzone=21,11 / fast_pskip=0 / chroma_qp_offset=-4 / threads=16 / lookahead_threads=2 / sliced_threads=0 / nr=0 / decimate=0 / interlaced=0 / bluray_compat=0 / constrained_intra=0 / fgo=0 / bframes=8 / b_pyramid=1 / b_adapt=2 / b_bias=0 / direct=3 / weightb=1 / open_gop=0 / weightp=1 / keyint=240 / keyint_min=23 / scenecut=40 / intra_refresh=0 / rc_lookahead=150 / rc=2pass / mbtree=0 / bitrate=14000 / ratetol=1.0 / qcomp=0.70 / qpmin=0:0:0 / qpmax=69:69:69 / qpstep=4 / cplxblur=20.0 / qblur=0.5 / vbv_maxrate=62500 / vbv_bufsize=78125 / nal_hrd=vbr / filler=0 / ip_ratio=1.30 / pb_ratio=1.20 / aq=2:0.80 / aq-sensitivity=10.00 / aq-factor=1.00:1.00:1.00 / aq2=0 / aq3=0
Language : English
Default : Yes
Forced : No
Color range : Limited
Color primaries : BT.709
Transfer characteristics : BT.709
Matrix coefficients : BT.709

Audio #1
ID : 2
Format : AC-3
Format/Info : Audio Coding 3
Format settings, Endianness : Big
Codec ID : A_AC3
Duration : 1 h 33 min
Bit rate mode : Constant
Bit rate : 384 kb/s
Channel(s) : 6 channels
Channel positions : Front: L C R, Side: L R, LFE
Sampling rate : 48.0 kHz
Frame rate : 31.250 FPS (1536 spf)
Bit depth : 16 bits
Compression mode : Lossy
Stream size : 257 MiB (3%)
Title : iTunes
Language : Russian
Service kind : Complete Main
Default : Yes
Forced : No

Audio #2
ID : 3
Format : AC-3
Format/Info : Audio Coding 3
Format settings, Endianness : Big
Codec ID : A_AC3
Duration : 1 h 33 min
Bit rate mode : Constant
Bit rate : 640 kb/s
Channel(s) : 6 channels
Channel positions : Front: L C R, Side: L R, LFE
Sampling rate : 48.0 kHz
Frame rate : 31.250 FPS (1536 spf)
Bit depth : 16 bits
Compression mode : Lossy
Stream size : 428 MiB (4%)
Title : Original
Language : English
Service kind : Complete Main
Default : No
Forced : No

Text
ID : 4
Format : UTF-8
Codec ID : S_TEXT/UTF8
Codec ID/Info : UTF-8 Plain Text
Duration : 1 h 24 min
Bit rate : 46 b/s
Count of elements : 835
Stream size : 28.6 KiB (0%)
Title : Full
Language : English
Default : No
Forced : No

Menu
00:00:00.000 : en:00:00:00.000
00:14:32.955 : en:00:14:32.955
00:31:35.519 : en:00:31:35.519
00:41:58.808 : en:00:41:58.808
00:52:07.416 : en:00:52:07.416
01:03:54.539 : en:01:03:54.539
01:14:47.525 : en:01:14:47.525
01:28:36.978 : en:01:28:36.978

pb.wtf



Скачать Черная бабочка через торрент http://s002.radikal.ru/i198/1707/6b/9d95b0440841.jpg Скачать фильм Черная бабочка через торрент бесплантно в хорошем качестве Описание: Пол - писатель, живущий в одиноком домике на отшибе. В последнее время его дела идут не очень: заказчик забраковал его последнюю ... 9.5 10 13
Info! Золотая раздача, скачанное не засчитывается.
Торрент: Зарегистрирован [2017-07-06 11:40] · скачан: 310 раз
Статус: √ проверено
Размер: 9.82 GB
Как cкачать? Как скачать Черная бабочка через торрент | qTorrent

% Раздел Тема Автор DL S | L
Фильмы [HD 720p, 1080p] (Хороший звук DUB, MVO) [ 6.57 GB ] Черная бабочка / Black Butterfly [2017 BDRip 1080p] Dub potroks Скачать
2 | 0
Фильмы без перевода [ 22.72 GB ] Черная бабочка / Black Butterfly [2016 BDRemux] [Оригинал-ENG] smaster Скачать
1 | 0
Фильмы 2017 [DVDrip, WEB-DLRip, HDrip] (DUB, MVO) [ 1.42 GB ] Черная бабочка / Black Butterfly [2017 BDRip] - Twi7ter Скачать
2 | 0
Фильмы 2017 [DVDrip, WEB-DLRip, HDrip] (DUB, MVO) [ 1.44 GB ] Черная бабочка / Black Butterfly [2017 BDRip-AVC] - ExKinoRay Enigma2010 Скачать
1 | 0
Фильмы 2017 [DVDrip, WEB-DLRip, HDrip] (DUB, MVO) [ 1.7 GB ] Черная бабочка / Black Butterfly [2017 BDRip-AVC] bober100 Скачать
1 | 0
Фильмы 2017 [DVDrip, WEB-DLRip, HDrip] (DUB, MVO) [ 746 MB ] Черная бабочка / Black Butterfly [2017 BDRip] bober100 Скачать
1 | 0
Фильмы 2017 [DVDrip, WEB-DLRip, HDrip] (DUB, MVO) [ 1.42 GB ] Черная бабочка / Black Butterfly [2017 BDRip |DUB- ] Ворон Скачать
1 | 0


Последний раз редактировалось: bober100 (2017-07-06 14:22), всего редактировалось 4 раз(а)

28-11-2019 20:33  

Отключить всю рекламу на сайте

06-07-2017 12:12 Черная бабочка Скачать торрент  

bober100 писал(а):

Видео: 48 kHz, AC3, 5.1, 384 Kbps | Дублированный | iTunes | RUS |
Аудио#1: 48 kHz, AC3, 5.1, 640 Kbps | Оригинал | ENG |

bober100, поправьте тех. данныеpb.wtf



06-07-2017 14:17 Черная бабочка Скачать торрент  

-Lexx-, Поправил pb.wtf



06-07-2017 16:23 Черная бабочка Скачать торрент  

хороший триллерpb.wtf



    Дорогой пользователь! Огромная просьба, поблагодарите релизера, оцените раздачу и оставьте свои комментарий, если Вы скачали Черная бабочка через торрент бесплатно! Внесите свою лепту в развитие PiratBit!
    Комментировать посты могут только пользователи прошедшие не сложную регистрацию
    Показать сообщения:    

    Черная бабочка через торрент
    Скачать бесплатно Черная бабочка
    Черная бабочка скачать торрент
    Черная бабочка смотреть онлайн
    Cкачать фильм Черная бабочка бесплатно
    Черная бабочка скачать торрент в хорошем качестве
    Черная бабочка смотреть онлайн бесплатно в хорошем качестве


    Вы не можете начинать темы
    Вы не можете отвечать на сообщения
    Вы не можете редактировать свои сообщения
    Вы не можете удалять свои сообщения
    Вы не можете голосовать в опросах
    Вы не можете прикреплять файлы к сообщениям
    Вы можете скачивать файлы