Ссылка на приватное зеркало нашего сайта всего за 1$. Внимание количество ограничено!!!

2 сезон

iTunes

1 сезон

1

2 сезон

2 сезон

iTunes

1 сезон

RePack

30

Ultimate

ВАЖНО

ИГРА 18+

pack

RePack

MK11
pack

Забери бонус

RePack

jed

!!Акция!!

Alien_Rage

RePack

fifa19

RePack

Assassins Creed: Odyssey

RePack

NEED FOR SPEED™ PAYBACK

4 сезон

9 сезон

Бесстыжие 9 сезон

Все сериалы

все сериалы на PB.wtf

RePack

FAR CRY 5
  

Доктор Эмили Оуэнс / Сезон: 1 / Серии 1-8 из 13 / Emily Owens M.D. (Бхарат Наллури, Джеми Бэббит, Ховард Дойч) [2012 , драма, мелодрама, комедия, SATRip-AVC] Профессиональный многоголосый [CBS drama] pb.wtf

Доктор Эмили Оуэнс через торрент pb.wtf

Размер: 3.58 GB | Добавлен: 3 года 4 мес. назад | Торрент скачан:9 раз
Скачать  

06-07-2017 13:15 Доктор Эмили Оуэнс Скачать торрент  

Доктор Эмили Оуэнс / Emily Owens M.D


Год выпуска: 2012
Страна: США
Жанр: драма
Продолжительность: 00:40:00
Перевод: Профессиональный многоголосый [CBS drama]
Режиссер: Бхарат Наллури, Джеми Бэббит, Ховард Дойч
В ролях:

Мэми Гаммер (Dr. Emily Owens), Джастин Хартли (Dr. Will Collins), Эйджа Наоми Кинг (Dr. Cassandra Kopelson), Майкл Рэди (Dr. Micah Barnes), Некар Задеган (Dr. Gina Bandari), Келли МакКрири (Dr. Tyra Dupre), Ёсиэ Бэнкрофт (Nurse Sunny), Кристин Уиллз (E.R. Nurse), Гарри Дж. Ленникс (Dr. Tim Dupre), Кэтрин Барролл (Joyce Barnes), Марк Ганиме (Dr. Jamie Albagetti), Бриттани Исибаси (Dr. Kelly Hamata)
Описание:
Наконец-то Эмили Оуэнс чувствует, что повзрослела! Можно забыть про школьные деньки; медицинская школа окончена, и теперь она интерн в больнице Денвера, где она сможет работать с знаменитым кардиологом доктором Джиной Бендари, а также с ее университетской любовью Уиллом Коллинзом, который тоже получил там интернатуру. Так почему же все повторяют, что интернатура — это та же школа? Эмили быстро узнает, почему. Красотка Кассандра Копельсон, главный враг Эмили в старших классах школы, тоже объявляется в больнице, и теперь они снова соперничают. Причем конкуренция у них не только за операции, но и за внимание Уилла. Еще один интерн, Тайра Дюпри, сообщает Эмили, что в больнице остались те же группировки, что и в школе. Спортсмены подались в ортопедию; злые девчонки — в пластику. Эмили же снова стала новенькой. Вот только теперь школьные переживания приходится совмещать с высокими ставками профессии доктора.

Качество: SATRip-AVC by
Формат: MKV
Видео кодек: AVC
Аудио кодек: AC3
Видео: AVC, 720x384 (1.85:1), 1376 kbps, 25 fps, 0,199 bpp
Аудио: AC3 / 2 ch / 48 kHz / 192 kbps /

General
Doktor.JEmili.Oujens.х264.SATRip.(AVC).Generalfilm\003.mkv
Format : Matroska
Format version : Version 4 / Version 2
File size : 443 MiB
Duration : 39 min
Overall bit rate : 1 570 kb/s
Movie name : Generalfilm
Encoded date : UTC 2017-07-04 19:11:02
Writing application : mkvmerge v6.8.0 ('Theme for Great Cities') 64bit built on Mar 2 2014 21:34:26
Writing library : libebml v1.3.0 + libmatroska v1.4.1

Video
ID : 1
Format : AVC
Format/Info : Advanced Video Codec
Format profile : High@L4.1
Format settings, CABAC : Yes
Format settings, ReFrames : 12 frames
Codec ID : V_MPEG4/ISO/AVC
Duration : 39 min
Bit rate : 1 376 kb/s
Width : 720 pixels
Height : 384 pixels
Display aspect ratio : 1.85:1
Frame rate mode : Constant
Frame rate : 25.000 FPS
Color space : YUV
Chroma subsampling : 4:2:0
Bit depth : 8 bits
Scan type : Progressive
Bits/(Pixel*Frame) : 0.199
Stream size : 380 MiB (86%)
Writing library : x264 core 148 r2638 7599210
Encoding settings : cabac=1 / ref=12 / deblock=1:-2:-1 / analyse=0x3:0x113 / me=umh / subme=11 / psy=1 / psy_rd=1.00:0.14 / mixed_ref=1 / me_range=32 / chroma_me=1 / trellis=2 / 8x8dct=1 / cqm=0 / deadzone=21,11 / fast_pskip=0 / chroma_qp_offset=-5 / threads=6 / lookahead_threads=1 / sliced_threads=0 / nr=0 / decimate=0 / interlaced=0 / bluray_compat=0 / constrained_intra=0 / bframes=12 / b_pyramid=2 / b_adapt=2 / b_bias=0 / direct=1 / weightb=0 / open_gop=0 / weightp=2 / keyint=250 / keyint_min=25 / scenecut=40 / intra_refresh=0 / rc_lookahead=40 / rc=2pass / mbtree=1 / bitrate=1376 / ratetol=1.0 / qcomp=0.70 / qpmin=0 / qpmax=69 / qpstep=4 / cplxblur=20.0 / qblur=0.5 / vbv_maxrate=50000 / vbv_bufsize=65500 / nal_hrd=none / filler=0 / ip_ratio=1.40 / aq=1:1.00
Default : Yes
Forced : No

Audio
ID : 2
Format : AC-3
Format/Info : Audio Coding 3
Mode extension : CM (complete main)
Format settings, Endianness : Big
Codec ID : A_AC3
Duration : 39 min
Bit rate mode : Constant
Bit rate : 192 kb/s
Channel(s) : 2 channel
Channel positions : Front: C
Sampling rate : 48.0 kHz
Frame rate : 31.250 FPS (1536 spf)
Compression mode : Lossy
Stream size : 54.2 MiB (12%)
Default : Yes
Forced : No
Внимание! Раздача ведётся путём добавления новых серий; при каждом добавлении создётся новый торрент. Чтобы начать докачку новой серии, пользователям необходимо сделать следующее:
  • Остановить скачивание,
  • Удалить старый торрент у себя из клиента (старые серии удалять не надо),
  • Скачать новый торрент и запустить его у себя в клиенте вместо старого, при этом указать клиенту путь в старую папку куда и должно происходить скачивание новых серий.
Ваш клиент при этом должен произвести хеширование (проверку) старой папки (если не производит сам - помогите ему сделать это), и будет докачивать только те серии которых у вас ещё нет. Старые серии при этом не удаляются, а продолжают раздаваться!

Eсли вы уже удалили старые серии, то предотвратить повторную закачку старых серий можно, отжав галочку в соответсвующих местах при запуске нового торрента. По возможности, желательно не удалять старые серии как можно дольше чтобы релизёр не столько продолжал раздавать старые серии, а смог сконцентрироваться на новых.
pb.wtf



Скачать Доктор Эмили Оуэнс через торрент http://i94.fastpic.ru/big/2017/0706/9b/e726c60d2508f5cda3fa1e388b67579b.jpeg Скачать фильм Доктор Эмили Оуэнс через торрент бесплантно в хорошем качестве Описание: Наконец-то Эмили Оуэнс чувствует, что повзрослела! Можно забыть про школьные деньки; медицинская школа окончена, и теперь она ... 9 10 1
Info! Золотая раздача, скачанное не засчитывается.
Торрент: Зарегистрирован [2017-07-07 19:28] · скачан: 9 раз
Статус: √ проверено
Размер: 3.58 GB
Как cкачать? Как скачать Доктор Эмили Оуэнс через торрент | qTorrent

28-11-2019 20:33  

Отключить всю рекламу на сайте

    Дорогой пользователь! Огромная просьба, поблагодарите релизера, оцените раздачу и оставьте свои комментарий, если Вы скачали Доктор Эмили Оуэнс через торрент бесплатно! Внесите свою лепту в развитие PiratBit!
    Комментировать посты могут только пользователи прошедшие не сложную регистрацию
    Показать сообщения:    

    Доктор Эмили Оуэнс через торрент
    Скачать бесплатно Доктор Эмили Оуэнс
    Доктор Эмили Оуэнс скачать торрент
    Доктор Эмили Оуэнс смотреть онлайн
    Cкачать фильм Доктор Эмили Оуэнс бесплатно
    Доктор Эмили Оуэнс скачать торрент в хорошем качестве
    Доктор Эмили Оуэнс смотреть онлайн бесплатно в хорошем качестве


    Вы не можете начинать темы
    Вы не можете отвечать на сообщения
    Вы не можете редактировать свои сообщения
    Вы не можете удалять свои сообщения
    Вы не можете голосовать в опросах
    Вы не можете прикреплять файлы к сообщениям
    Вы можете скачивать файлы