2 сезон

iTunes

MVO

1

2 сезон

iTunes

iTunes

1 сезон

RePack

30

Ultimate

ВАЖНО

ИГРА 18+

pack

RePack

MK11
pack

Легкие деньги

RePack

jed

RePack

fifa19

RePack

RDR2

RePack

NEED FOR SPEED™ PAYBACK

4 сезон

9 сезон

Бесстыжие 9 сезон

Все сериалы

все сериалы на PB.wtf

RePack

FAR CRY 5

Anonymous, добрый день, мы не успеваем собрать деньги на оплату серверов за декабрь и январь, помогите нам пожалуйста в это трудное время. В качестве благодарности мы отключим Вам всю рекламу на сайте (укажите свой ник в строку Ваше имя)!

×
  
Magnet ссылка

Черная бабочка / Black Butterfly (Брайан Гудман) [2017, Триллер, BDRip-AVC] DUB [iTunes] - ExKinoRay pb.wtf

Черная бабочка через торрент pb.wtf

Размер: 1.44 GB | Добавлен: 3 года 6 мес. назад | Торрент скачан:427 раз
Скачать  

07-07-2017 03:47 Черная бабочка Скачать торрент  

Информация о фильме
Название: Черная бабочка
Оригинальное название: Black Butterfly
Год выпуска: 2017
Жанр: Триллер
Страна: США
Студия: Ambi Pictures, Battleplan Productions, Compadre Entertainmen
Продолжительность: 01:33:34
Перевод: Дублированный | iTunes
Субтитры: Английские
Режиссер: Брайан Гудман
В ролях: Джонатан Рис-Майерс, Пайпер Перабо, Антонио Бандерас, Абель Феррара, Николас Аарон, Винсент Риотта, Натали Рапти, Гомес Кэти, МакГоверн, Рэндолл Пол, Джоя Либардони

Описание: Пол — писатель, живущий в одиноком домике на отшибе. В последнее время его дела идут не очень: заказчик забраковал его последнюю книгу, а сам он пытается забыть о неудачах с помощью алкоголя. Однако жизнь отшельника резко меняется, когда он встречает незнакомца, помогающему ему избежать потасовки в придорожном кафе. Узнав, что незнакомец путешествует налегке, Пол предлагает тому остановиться у него на ночлег. Незнакомец неожиданно проявляет интерес к писателю и предлагает новый сюжет для его книги. Но кто он такой, и что означает загадочная татуировка в виде черной бабочки на его теле.


rating

Файл
Формат: MKV
Качество: BDRip-AVC
Видео: MPEG-4 AVC, 720x302 (2.40:1), 1816 Kbit/s, 23.976 fps, 0,348 bpp
Звук:
Аудио: 48 kHz, AC3, 5.1, 384 Kbps | iTunes | RUS

Навигация по главам: есть
General
Unique ID : 236404073084649309437925633793005790713 (0xB1D9C4B176BEF03E8BC0E447CE0925F9)
Complete name : D:\Black.butterfly.2017.D.BDRip.AVC.ExKinoRay.mkv
Format : Matroska
Format version : Version 2
File size : 1.44 GiB
Duration : 1 h 33 min
Overall bit rate : 2 201 kb/s
Movie name : Черная бабочка (2017) from ExKinoRay
Encoded date : UTC 2017-07-06 20:19:13
Writing application : mkvmerge v5.6.0 ('Kenya Kane') built on May 27 2012 16:44:04
Writing library : libebml v1.2.3 + libmatroska v1.3.0

Video
ID : 1
Format : AVC
Format/Info : Advanced Video Codec
Format profile : High@L4.1
Format settings, CABAC : Yes
Format settings, ReFrames : 10 frames
Codec ID : V_MPEG4/ISO/AVC
Duration : 1 h 33 min
Bit rate : 1 816 kb/s
Width : 720 pixels
Height : 302 pixels
Display aspect ratio : 2.40:1
Frame rate mode : Constant
Frame rate : 23.976 (24000/1001) FPS
Original frame rate : 23.976 (23976/1000) FPS
Color space : YUV
Chroma subsampling : 4:2:0
Bit depth : 8 bits
Scan type : Progressive
Bits/(Pixel*Frame) : 0.348
Stream size : 1.16 GiB (81%)
Title : Enigma
Writing library : x264 core 144 r2525 40bb568
Encoding settings : cabac=1 / ref=10 / deblock=1:-2:-2 / analyse=0x3:0x113 / me=umh / subme=10 / psy=1 / psy_rd=1.00:0.06 / mixed_ref=1 / me_range=32 / chroma_me=1 / trellis=2 / 8x8dct=1 / cqm=0 / deadzone=21,11 / fast_pskip=1 / chroma_qp_offset=-3 / threads=12 / lookahead_threads=2 / sliced_threads=0 / nr=0 / decimate=0 / interlaced=0 / bluray_compat=0 / constrained_intra=0 / bframes=10 / b_pyramid=2 / b_adapt=2 / b_bias=0 / direct=3 / weightb=1 / open_gop=0 / weightp=2 / keyint=240 / keyint_min=23 / scenecut=40 / intra_refresh=0 / rc_lookahead=40 / rc=2pass / mbtree=0 / bitrate=1816 / ratetol=1.0 / qcomp=0.60 / qpmin=0 / qpmax=51 / qpstep=4 / cplxblur=20.0 / qblur=0.5 / vbv_maxrate=50000 / vbv_bufsize=62500 / nal_hrd=none / filler=0 / ip_ratio=1.40 / pb_ratio=1.30 / aq=1:1.00
Default : Yes
Forced : No
Color range : Limited
Color primaries : BT.709
Transfer characteristics : BT.709
Matrix coefficients : BT.709

Audio
ID : 2
Format : AC-3
Format/Info : Audio Coding 3
Mode extension : CM (complete main)
Format settings, Endianness : Big
Codec ID : A_AC3
Duration : 1 h 33 min
Bit rate mode : Constant
Bit rate : 384 kb/s
Channel(s) : 6 channels
Channel positions : Front: L C R, Side: L R, LFE
Sampling rate : 48.0 kHz
Frame rate : 31.250 FPS (1536 spf)
Compression mode : Lossy
Stream size : 257 MiB (17%)
Title : iTunes
Language : Russian
Default : Yes
Forced : No

Text
ID : 3
Format : UTF-8
Codec ID : S_TEXT/UTF8
Codec ID/Info : UTF-8 Plain Text
Language : English
Default : No
Forced : No

Menu
00:00:00.000 : en:Chapter 1
00:14:32.955 : en:Chapter 2
00:31:35.518 : en:Chapter 3
00:41:58.807 : en:Chapter 4
00:52:07.415 : en:Chapter 5
01:03:54.539 : en:Chapter 6
01:14:47.524 : en:Chapter 7
01:28:36.978 : en:Chapter 8
Релиз от:

Автор релиза: pb.wtf



Скачать Черная бабочка через торрент http://s002.radikal.ru/i198/1707/6b/9d95b0440841.jpg Скачать фильм Черная бабочка через торрент бесплантно в хорошем качестве Описание: Пол — писатель, живущий в одиноком домике на отшибе. В последнее время его дела идут не очень: заказчик забраковал его последнюю ... 10 10 10
Info! Золотая раздача, скачанное не засчитывается.
Торрент: Зарегистрирован [2017-07-07 03:47] · скачан: 427 раз
Статус: √ проверено
Размер: 1.44 GB
Как cкачать? Как скачать Черная бабочка через торрент | UTorrent

28-11-2019 20:33  

Отключить всю рекламу на сайте

    Дорогой пользователь! Огромная просьба, поблагодарите релизера, оцените раздачу и оставьте свои комментарий, если Вы скачали Черная бабочка через торрент бесплатно! Внесите свою лепту в развитие PiratBit!
    Комментировать посты могут только пользователи прошедшие не сложную регистрацию
    Показать сообщения:    

    Черная бабочка через торрент
    Скачать бесплатно Черная бабочка
    Черная бабочка скачать торрент
    Черная бабочка смотреть онлайн
    Cкачать фильм Черная бабочка бесплатно
    Черная бабочка скачать торрент в хорошем качестве
    Черная бабочка смотреть онлайн бесплатно в хорошем качестве


    Вы не можете начинать темы
    Вы не можете отвечать на сообщения
    Вы не можете редактировать свои сообщения
    Вы не можете удалять свои сообщения
    Вы не можете голосовать в опросах
    Вы не можете прикреплять файлы к сообщениям
    Вы можете скачивать файлы