Ссылка на приватное зеркало нашего сайта всего за 1$. Внимание количество ограничено!!!

2 сезон

iTunes

1 сезон

1

2 сезон

2 сезон

iTunes

1 сезон

RePack

30

Ultimate

ВАЖНО

ИГРА 18+

pack

RePack

MK11
pack

Забери бонус

RePack

jed

!!Акция!!

Alien_Rage

RePack

fifa19

RePack

Assassins Creed: Odyssey

RePack

NEED FOR SPEED™ PAYBACK

4 сезон

9 сезон

Бесстыжие 9 сезон

Все сериалы

все сериалы на PB.wtf

RePack

FAR CRY 5
  

Линия смерти / Death Line (Гари Шерман) [1972, ужасы, триллер, BDRip 1080p by msltel] VO pb.wtf

Линия смерти через торрент pb.wtf

Размер: 11.5 GB | Добавлен: 3 года 4 мес. назад | Торрент скачан:9 раз
Скачать  

07-07-2017 06:14 Линия смерти Скачать торрент  

Название: Линия смерти
Оригинальное название: Death Line
Год выпуска: 1972
Страна: Великобритания
Жанр: ужасы, триллер
Продолжительность: 01:27:28
Перевод: любительский одноголосый

Режиссер: Гари Шерман
В ролях: Дональд Плезенс, Кристофер Ли, Норман Россингтон, Дэвид Лэдд, Шэрон Гёрни, Хью Армстронг, Джун Тернер, Клайв Свифт, Джеймс Коссинс, Хезер Стоуни, Хью Диксон

Описание: При строительстве одной из линий лондонского метро еще в конце девятнадцатого века произошел обвал, и часть рабочих, среди которых были и женщины, оказалась под завалом. После этого инцидента строительная компания обанкротилась, и недостроенную ветку с погребёнными под завалом телами забросили. Однако часть людей всё-таки выжила, и их потомки в изрядно одичавшем виде дожили до наших дней, питаясь... запоздавшими посетителями метро!...



Качество: BDRip 1080p
Формат: MKV
Видео: MPEG-4 AVC, 17.1 Mбит/с, 1920x1036
Аудио 1: русский, AC3, 192 kbps, 2 ch, 48 kHz [любительский одноголосый, RussianGuy27, с ненормативной лексикой]
Аудио 2: английский, DTS, 1509 kbps, 2 ch, 48 kHz [оригинал]
Субтитры: английские
Имеются неименованные главы/чаптеры.
Общее
Уникальный идентификатор : 173178749019527179558071923776512490282 (0x8249038B77238882BCAB86119AC67B2A)
Полное имя : D:\Video\Линия смерти.1972.BDRip.1080p by msltel.mkv
Формат : Matroska
Версия формата : Version 4 / Version 2
Размер файла : 11,5 Гбайт
Продолжительность : 1 ч. 27 м.
Общий поток : 18,8 Мбит/сек
Название фильма : Rip by msltel
Дата кодирования : UTC 2017-07-07 02:21:45
Программа кодирования : mkvmerge v8.2.0 ('World of Adventure') 64bit
Библиотека кодирования : libebml v1.3.1 + libmatroska v1.4.2

Видео
Идентификатор : 1
Формат : AVC
Формат/Информация : Advanced Video Codec
Профиль формата : High@L4.1
Параметр CABAC формата : Да
Параметр ReFrames формата : 4 кадра
Идентификатор кодека : V_MPEG4/ISO/AVC
Продолжительность : 1 ч. 27 м.
Битрейт : 17,1 Мбит/сек
Ширина : 1920 пикселей
Высота : 1036 пикселей
Соотношение сторон : 1,85:1
Режим частоты кадров : Постоянный
Частота кадров : 23,976 (24000/1001) кадра/сек
Цветовое пространство : YUV
Субдискретизация насыщенности : 4:2:0
Битовая глубина : 8 бит
Тип развёртки : Прогрессивная
Бит/(Пиксели*Кадры) : 0.360
Размер потока : 10,5 Гбайт (91%)
Библиотека кодирования : x264 core 146 r2538 121396c
Настройки программы : cabac=1 / ref=4 / deblock=1:-3:-2 / analyse=0x3:0x113 / me=umh / subme=11 / psy=1 / psy_rd=1.00:0.15 / mixed_ref=1 / me_range=32 / chroma_me=1 / trellis=2 / 8x8dct=1 / cqm=0 / deadzone=21,11 / fast_pskip=0 / chroma_qp_offset=-3 / threads=6 / lookahead_threads=1 / sliced_threads=0 / nr=0 / decimate=1 / interlaced=0 / bluray_compat=0 / constrained_intra=0 / bframes=12 / b_pyramid=2 / b_adapt=2 / b_bias=0 / direct=1 / weightb=1 / open_gop=0 / weightp=2 / keyint=230 / keyint_min=23 / scenecut=40 / intra_refresh=0 / rc_lookahead=40 / rc=crf / mbtree=0 / crf=18.3 / qcomp=0.60 / qpmin=0 / qpmax=69 / qpstep=4 / vbv_maxrate=62500 / vbv_bufsize=78125 / crf_max=0.0 / nal_hrd=none / filler=0 / ip_ratio=1.40 / pb_ratio=1.30 / aq=1:1.00
Язык : English
Default : Да
Forced : Нет

Аудио #1
Идентификатор : 2
Формат : AC-3
Формат/Информация : Audio Coding 3
Параметр Endianness формата : Big
Идентификатор кодека : A_AC3
Продолжительность : 1 ч. 27 м.
Вид битрейта : Постоянный
Битрейт : 192 Кбит/сек
Каналы : 2 канала
Расположение каналов : Front: L R
Частота : 48,0 КГц
Частота кадров : 31,250 кадров/сек (1536 spf)
Битовая глубина : 16 бит
Метод сжатия : С потерями
Размер потока : 120 Мбайт (1%)
Заголовок : любительский одноголосый, RussianGuy27, с ненормативонй лексикой
Язык : Russian
ServiceKind/String : Complete Main
Default : Да
Forced : Нет

Аудио #2
Идентификатор : 3
Формат : DTS
Формат/Информация : Digital Theater Systems
Режим : 16
Параметр Endianness формата : Big
Идентификатор кодека : A_DTS
Продолжительность : 1 ч. 27 м.
Вид битрейта : Постоянный
Битрейт : 1509 Кбит/сек
Каналы : 2 канала
Расположение каналов : Front: L R
Частота : 48,0 КГц
Частота кадров : 93,750 кадра/сек (512 spf)
Битовая глубина : 16 бит
Метод сжатия : С потерями
Размер потока : 943 Мбайт (8%)
Заголовок : original
Язык : English
Default : Нет
Forced : Нет

Текст
Идентификатор : 4
Формат : UTF-8
Идентификатор кодека : S_TEXT/UTF8
Идентификатор кодека/Информация : UTF-8 Plain Text
Продолжительность : 1 ч. 26 м.
Битрейт : 44 бит/сек
ElementCount : 990
Размер потока : 27,9 Кбайт (0%)
Заголовок : английские
Язык : English
Default : Нет
Forced : Нет

Меню
00:00:00.000 : en:Chapter 01
00:05:43.885 : en:Chapter 02
00:10:27.668 : en:Chapter 03
00:14:54.351 : en:Chapter 04
00:21:22.281 : en:Chapter 05
00:23:26.113 : en:Chapter 06
00:31:34.434 : en:Chapter 07
00:33:12.031 : en:Chapter 08
00:38:43.029 : en:Chapter 09
00:43:52.588 : en:Chapter 10
00:47:52.160 : en:Chapter 11
00:52:57.007 : en:Chapter 12
00:56:03.068 : en:Chapter 13
01:03:01.152 : en:Chapter 14
01:09:51.520 : en:Chapter 15
01:15:35.489 : en:Chapter 16
01:21:30.719 : en:Chapter 17
01:26:14.002 : en:Chapter 18
pb.wtf



Скачать Линия смерти через торрент http://hostpic.gq/img/2017-07/06/3r8m5ndbdnhr7sfi8rog20stn.jpg Скачать фильм Линия смерти через торрент бесплантно в хорошем качестве Описание: При строительстве одной из линий лондонского метро еще в конце девятнадцатого века произошел обвал, и часть рабочих, среди ... 10 10 4
Info! Золотая раздача, скачанное не засчитывается.
Торрент: Зарегистрирован [2017-07-07 06:14] · скачан: 9 раз
Статус: √ проверено
Размер: 11.5 GB
Как cкачать? Как скачать Линия смерти через торрент | qTorrent

% Раздел Тема Автор DL S | L
Фильмы [HD 720p, 1080p] (Звук Cam, VO, DVO) [ 3.98 GB ] Линия смерти / Death Line [1972 BDRip 720p by msltel] VO msltel Скачать
1 | 0

28-11-2019 20:33  

Отключить всю рекламу на сайте

    Дорогой пользователь! Огромная просьба, поблагодарите релизера, оцените раздачу и оставьте свои комментарий, если Вы скачали Линия смерти через торрент бесплатно! Внесите свою лепту в развитие PiratBit!
    Комментировать посты могут только пользователи прошедшие не сложную регистрацию
    Показать сообщения:    

    Линия смерти через торрент
    Скачать бесплатно Линия смерти
    Линия смерти скачать торрент
    Линия смерти смотреть онлайн
    Cкачать фильм Линия смерти бесплатно
    Линия смерти скачать торрент в хорошем качестве
    Линия смерти смотреть онлайн бесплатно в хорошем качестве


    Вы не можете начинать темы
    Вы не можете отвечать на сообщения
    Вы не можете редактировать свои сообщения
    Вы не можете удалять свои сообщения
    Вы не можете голосовать в опросах
    Вы не можете прикреплять файлы к сообщениям
    Вы можете скачивать файлы