1 сезон

3 сезон

iTunes

1

Line

MVO

iTunes

13

1 сезон

RePack

30

Deluxe

pack

Лицензия

ВАЖНО

ИГРА 18+

pack

RePack

MK11

RePack

jed

RePack

fifa19

RePack

RDR2

RePack

NEED FOR SPEED™ PAYBACK

4 сезон

9 сезон

Бесстыжие 9 сезон

Все сериалы

все сериалы на PB.wtf

RePack

FAR CRY 5

Anonymous, доброй ночи, мы катастрофически не успеваем собрать деньги на оплату серверов, помогите нам пожалуйста 5,10,15р., для нас важна любая помощь . В качестве благодарности мы отключим Вам всю рекламу на сайте (укажите свой ник в строку Ваше имя)!

×
  
Magnet ссылка

Прочь / Get Out (Джордан Пил) [2017, ужасы, детектив, BDRip 720p] Дубляж - [Лицензия / iTunes] + MVO + AVO - R.G.Resident pb.wtf

Прочь через торрент pb.wtf

Размер: 5.65 GB | Добавлен: 4 года назад | Торрент скачан:309 раз
Скачать  

07-07-2017 07:50 Прочь Скачать торрент  

Прочь / Get Out
««Знакомство с родителями не всегда заканчивается свадьбой»»

Год выпуска: 2017
Страна: США
Жанр: ужасы, детектив
Продолжительность: 01:44:05
Перевод: Дубляж - [Лицензия / iTunes], профессиональный многоголосый [AlexFilm], aвторский (одноголосый) [М.Яроцкий]
Субтитры: русские (Full), английские (Full)
Режиссер: Джордан Пил
В ролях:

Дэниэл Калуя (Chris Washington), Эллисон Уильямс (Rose Armitage), Кэтрин Кинер (Missy Armitage), Брэдли Уитфорд (Dean Armitage), Калеб Лэндри Джонс (Jeremy Armitage), Маркус Хендерсон (Walter), Бетти Гэбриел (Georgina), Лейкит Стэнфилд (Andrew Logan King), Стивен Рут (Jim Hudson), Лил Релл (Rod Williams), Эшли ЛеКонте Кэмпбелл (Lisa Deets), Джон Уилмот (Gordon Greene)
Описание:
Знакомство с родителями подружки не предвещает молодому фотографу из Нью-Йорка ничего хорошего, ведь семья девушки принадлежит к элитному обществу и живет в уединенном загородном доме. Если бы он только знал истинную причину своего приглашения, то немедленно бросился бы прочь...
Мировая премьера: 23 января 2017

MPAA: R - Лицам до 17 лет обязательно присутствие взрослого
Качество: BDRip 720p Rip by
Формат: MKV
Видео: AVC, 1280x534 (2.40:1), 3732 kbps, 23,976 fps, 0,228 bpp
Аудио №1: русский / AC3 / 5.1 / 48 kHz / 384 kbps / Дубляж
Аудио №2: русский / AC3 / 5.1 / 48 kHz / 640 kbps / MVO
Аудио №3: русский / DTS / 5.1 / 48 kHz / 1509 kbps / 24 bit AVO
Аудио №4: английский / DTS / 5.1 / 48 kHz / 1509 kbps / 24 bit Original
x264 [info]: frame I:1219 Avg QP:13.30 size:123099
x264 [info]: frame P:31609 Avg QP:15.54 size: 41115
x264 [info]: frame B:116906 Avg QP:17.02 size: 12503

General
Unique ID : 219772684288636310659294888243965562005 (0xA556ADEABB89583D894F12FB1E2D8C95)
Complete name : D:\download\Get.Out.2017.BDRip 720p by schultz R.G.Resident.mkv
Format : Matroska
Format version : Version 4 / Version 2
File size : 5.65 GiB
Duration : 1 h 44 min
Overall bit rate : 7 775 kb/s
Encoded date : UTC 2017-07-07 02:56:27
Writing application : mkvmerge v8.9.0 ('Father Daughter') 64bit
Writing library : libebml v1.3.3 + libmatroska v1.4.4

Video
ID : 1
Format : AVC
Format/Info : Advanced Video Codec
Format profile : High@L4.1
Format settings, CABAC : Yes
Format settings, ReFrames : 11 frames
Codec ID : V_MPEG4/ISO/AVC
Duration : 1 h 44 min
Bit rate : 3 732 kb/s
Width : 1 280 pixels
Height : 534 pixels
Display aspect ratio : 2.40:1
Frame rate mode : Constant
Frame rate : 23.976 (23976/1000) FPS
Color space : YUV
Chroma subsampling : 4:2:0
Bit depth : 8 bits
Scan type : Progressive
Bits/(Pixel*Frame) : 0.228
Stream size : 2.71 GiB (48%)
Writing library : x264 core 146 r2538 121396c
Encoding settings : cabac=1 / ref=11 / deblock=1:-3:-3 / analyse=0x3:0x113 / me=umh / subme=11 / psy=1 / psy_rd=1.00:0.15 / mixed_ref=1 / me_range=48 / chroma_me=1 / trellis=2 / 8x8dct=1 / cqm=0 / deadzone=21,11 / fast_pskip=0 / chroma_qp_offset=-3 / threads=12 / lookahead_threads=3 / sliced_threads=0 / nr=0 / decimate=0 / interlaced=0 / bluray_compat=0 / constrained_intra=0 / bframes=10 / b_pyramid=2 / b_adapt=2 / b_bias=0 / direct=3 / weightb=1 / open_gop=0 / weightp=2 / keyint=240 / keyint_min=23 / scenecut=40 / intra_refresh=0 / rc_lookahead=40 / rc=2pass / mbtree=0 / bitrate=3732 / ratetol=1.0 / qcomp=0.60 / qpmin=0 / qpmax=69 / qpstep=4 / cplxblur=20.0 / qblur=0.5 / vbv_maxrate=50000 / vbv_bufsize=62500 / nal_hrd=none / filler=0 / ip_ratio=1.40 / pb_ratio=1.30 / aq=1:1.00
Language : English
Default : Yes
Forced : No
Color range : Limited
Color primaries : BT.709
Transfer characteristics : BT.709
Matrix coefficients : BT.709

Audio #1
ID : 2
Format : AC-3
Format/Info : Audio Coding 3
Mode extension : CM (complete main)
Format settings, Endianness : Big
Codec ID : A_AC3
Duration : 1 h 44 min
Bit rate mode : Constant
Bit rate : 384 kb/s
Channel(s) : 6 channels
Channel positions : Front: L C R, Side: L R, LFE
Sampling rate : 48.0 kHz
Frame rate : 31.250 FPS (1536 spf)
Compression mode : Lossy
Stream size : 286 MiB (5%)
Title : iTunes
Language : Russian
Default : Yes
Forced : No

Audio #2
ID : 3
Format : AC-3
Format/Info : Audio Coding 3
Mode extension : CM (complete main)
Format settings, Endianness : Big
Codec ID : A_AC3
Duration : 1 h 44 min
Bit rate mode : Constant
Bit rate : 640 kb/s
Channel(s) : 6 channels
Channel positions : Front: L C R, Side: L R, LFE
Sampling rate : 48.0 kHz
Frame rate : 31.250 FPS (1536 spf)
Compression mode : Lossy
Stream size : 476 MiB (8%)
Title : MVO
Language : Russian
Default : No
Forced : No

Audio #3
ID : 4
Format : DTS
Format/Info : Digital Theater Systems
Mode : 16
Format settings, Endianness : Big
Codec ID : A_DTS
Duration : 1 h 44 min
Bit rate mode : Constant
Bit rate : 1 509 kb/s
Channel(s) : 6 channels
Channel positions : Front: L C R, Side: L R, LFE
Sampling rate : 48.0 kHz
Frame rate : 93.750 FPS (512 spf)
Bit depth : 24 bits
Compression mode : Lossy
Stream size : 1.10 GiB (19%)
Title : AVO
Language : Russian
Default : No
Forced : No

Audio #4
ID : 5
Format : DTS
Format/Info : Digital Theater Systems
Mode : 16
Format settings, Endianness : Big
Codec ID : A_DTS
Duration : 1 h 44 min
Bit rate mode : Constant
Bit rate : 1 509 kb/s
Channel(s) : 6 channels
Channel positions : Front: L C R, Side: L R, LFE
Sampling rate : 48.0 kHz
Frame rate : 93.750 FPS (512 spf)
Bit depth : 24 bits
Compression mode : Lossy
Stream size : 1.10 GiB (19%)
Title : Original
Language : English
Default : No
Forced : No

Text #1
ID : 6
Format : UTF-8
Codec ID : S_TEXT/UTF8
Codec ID/Info : UTF-8 Plain Text
Duration : 1 h 39 min
Bit rate : 72 b/s
Count of elements : 856
Stream size : 52.6 KiB (0%)
Title : Full
Language : Russian
Default : No
Forced : No

Text #2
ID : 7
Format : UTF-8
Codec ID : S_TEXT/UTF8
Codec ID/Info : UTF-8 Plain Text
Duration : 1 h 38 min
Bit rate : 49 b/s
Count of elements : 1232
Stream size : 35.6 KiB (0%)
Title : Full
Language : English
Default : No
Forced : No

Menu
00:00:00.000 : en:00:00:00.000
00:04:52.834 : en:00:04:52.834
00:10:13.530 : en:00:10:13.530
00:14:02.258 : en:00:14:02.258
00:19:07.480 : en:00:19:07.480
00:21:49.433 : en:00:21:49.433
00:26:07.357 : en:00:26:07.357
00:30:51.016 : en:00:30:51.016
00:37:19.487 : en:00:37:19.487
00:42:16.868 : en:00:42:16.868
00:48:03.172 : en:00:48:03.172
00:54:13.584 : en:00:54:13.584
00:57:38.288 : en:00:57:38.288
01:03:33.810 : en:01:03:33.810
01:10:48.911 : en:01:10:48.911
01:15:36.365 : en:01:15:36.365
01:22:02.543 : en:01:22:02.543
01:26:13.418 : en:01:26:13.418
01:32:24.414 : en:01:32:24.414
01:40:22.391 : en:01:40:22.391

pb.wtf



Скачать Прочь через торрент http://i77.fastpic.ru/big/2016/0417/a7/808a646271c761f7c7d87df3d366b3a7.png Скачать фильм Прочь через торрент бесплантно в хорошем качестве Описание: Знакомство с родителями подружки не предвещает молодому фотографу из Нью-Йорка ничего хорошего, ведь семья девушки принадлежит к ... 10 10 11
Info! Золотая раздача, скачанное не засчитывается.
Торрент: Зарегистрирован [2017-07-07 07:50] · скачан: 309 раз
Статус: √ проверено
Размер: 5.65 GB
Как cкачать? Как скачать Прочь через торрент | UTorrent

28-11-2019 20:33  

Отключить всю рекламу на сайте

07-07-2017 09:41 Прочь Скачать торрент  

Фильм супер! Чем-то отдаленно напомнил фильм - Ключ от всех дверейpb.wtf



30-07-2017 12:34 Прочь Скачать торрент  

Бюджет копеечный, но качество на уровне. Очень доволен фильмомpb.wtf



05-08-2017 15:58 Прочь Скачать торрент  

фильм почетный, интересный, неожиданный, добавлю в свою коллекцию лучших!pb.wtf



05-05-2018 12:42 Прочь Скачать торрент  

пересмотрю сейчас.фильм конечно огонь вооще.специально записывал и смотрел альтернативные концовки.все здорово.pb.wtf



    Дорогой пользователь! Огромная просьба, поблагодарите релизера, оцените раздачу и оставьте свои комментарий, если Вы скачали Прочь через торрент бесплатно! Внесите свою лепту в развитие PiratBit!
    Комментировать посты могут только пользователи прошедшие не сложную регистрацию
    Показать сообщения:    

    Прочь через торрент
    Скачать бесплатно Прочь
    Прочь скачать торрент
    Прочь смотреть онлайн
    Cкачать фильм Прочь бесплатно
    Прочь скачать торрент в хорошем качестве
    Прочь смотреть онлайн бесплатно в хорошем качестве


    Вы не можете начинать темы
    Вы не можете отвечать на сообщения
    Вы не можете редактировать свои сообщения
    Вы не можете удалять свои сообщения
    Вы не можете голосовать в опросах
    Вы не можете прикреплять файлы к сообщениям
    Вы можете скачивать файлы