2 сезон

iTunes

1 сезон

1

iTunes

iTunes

iTunes

1 сезон

RePack

30

ИГРА 18+

pack

ВАЖНО

!!Акция!!

Alien_RageХит недели

RePack

MK11
pack

Забери бонус

RePack

jed

!!Акция!!

Alien_Rage

RePack

fifa19

RePack

Assassins Creed: Odyssey

RePack

NEED FOR SPEED™ PAYBACK

4 сезон

9 сезон

Бесстыжие 9 сезон

Все сериалы

все сериалы на PB.wtf

RePack

FAR CRY 5
  

Город (1-8 серии из 8) (Юрий Трофимов, Дмитрий Константинов) [2015 г., Драма, криминал, реальные события, HDTV (1080i)] Оригинал] pb.wtf

Город через торрент pb.wtf

Размер: 19.94 GB | Добавлен: 3 года 3 мес. назад | Торрент скачан:110 раз
Скачать  

07-07-2017 11:32 Город Скачать торрент  

Город
Год выпуска: 2015
Страна: Россия
Жанр: Драма, криминал, реальные события
Продолжительность: 8 х ~ 00:50:00
Перевод:Оригинал
Субтитры: Нет

Режиссер: Юрий Трофимов, Дмитрий Константинов

В ролях: Пётр Фёдоров мл., Евгений Антропов, Владимир Юматов, Игорь Черневич, Владислав Абашин, Яна Гладких, Сергей Журавель, Надежда Михалкова, Фёдор Лавров, Светлана Колпакова, Евгений Куршинский, Вячеслав Чепурченко, Алексей Онежен, Денис Беспалый, Азамат Нигманов, Олег Мазуров, Валерий Трошин, Юлия Чебакова, Глеб Подгородинский, Юрий Ваксман, Полина Лазарева, Луиза-Габриэла Бровина, Александр Резалин, Анастасия Лапина, Сергей Сосновский, Илья Созыкин, Яна Сексте, Павел Поймалов, Андрей Курилов, Даниил Исламов, Ольга Ергина, Ольга Демидова, Арина Нестерова, Михаил Горский, Сергей Бызгу, Александр Булатов, Игорь Битюцкий, Нодар Джанелидзе, Виталий Московой

Описание: 1961 год. Небольшой городок Струнёво, сразу за 101-м километром. В отличие от соседних городов и посёлков, преступления здесь случаются не часто, а раскрываемость – одна из лучших в СССР. Но, расследуя смерть школьного учителя, оперативник Родион Стоцкий обнаруживает, что Струнёво – это «дом, в котором не гадят», и хозяева в этом доме – блатные и воры в законе, которые после амнистии облюбовали небольшой городок. А большинство грабежей и разбойных нападений в соседних городах и посёлках – скорее всего, как раз дело рук жителей мирного Струнёво.

Качество: HDTV (1080i)
Формат: TS
Видео кодек: AVC
Аудио кодек: AC3-MP2
Видео: MPEG-4 AVC, (1920x1080), 5848 Кбит/с, 25.000 кадра/сек
Аудио#1: AC3, 6 ch,384 kbps (Rus) 48.0 KHz Оригинал
Аудио#2: MP2, 2 ch, 192 kbps (Rus) 48.0 KHz Оригинал
скриншот   скриншот   скриншот  

Тип потока: Видео
Длительность: 00:49:03
Кодек: AVC
Кодек/описание: Advanced Video Codec
Кодек/профиль: High@L4.0
Кодек/ID: 27
Кодек/CABAC: Yes
Кодек/ReFrames: 3 frames
Размеры изображения: 1920 x 1080 (16:9)
Частота кадров: 25.000 fps
Размер потока: 2.00 GiB (86%)
Битрейт: 5 848 Kbps
Стандарт: Component
Цветовое пространство: YUV
Тип развёртки: Interlaced
Колориметрия: 4:2:0
Глубина: 8 bits
:
Тип потока: Звук #1
Язык: Russian
Длительность: 00:49:03.744
Кодек: AC-3
Кодек/описание: Audio Coding 3
Кодек/ID: 6
Частота дискретизации: 48.0 KHz
Каналов: 6 channels
Битрейт: 384 Kbps
Битрейт/тип: Constant
Размер потока: 135 MiB (6%)
Глубина: 16 bits
Метод сжатия: Lossy
:
Тип потока: Звук #2
Язык: Russian
Длительность: 00:49:03.696
Кодек: MPEG Audio
Кодек/профиль: Layer 2
Кодек/ID: 3
Частота дискретизации: 48.0 KHz
Каналов: 2 channels
Битрейт: 192 Kbps
Битрейт/тип: Constant
Размер потока: 67.4 MiB (3%)
Метод сжатия: Lossy

pb.wtf



Скачать Город через торрент http://pic1.kartinco.top/images/11/vwatm.jpg Скачать фильм Город через торрент бесплантно в хорошем качестве Описание: 1961 год. Небольшой городок Струнёво, сразу за 101-м километром. В отличие от соседних городов и посёлков, преступления здесь ... 10 10 6
Info! Золотая раздача, скачанное не засчитывается.
Торрент: Зарегистрирован [2017-07-07 11:32] · скачан: 110 раз
Статус: √ проверено
Размер: 19.94 GB
Как cкачать? Как скачать Город через торрент | qTorrent

% Раздел Тема Автор DL S | L
Мультфильмы / Cartoons [ 381 MB ] Охотницы на демонов - Demon hunters [2015Al sex gangbang anal fentazi monsters ass boobs.WEB-DLRip 720 Оригинальный] DJASFUL Скачать
1 | 1
Порно фильмы с сюжетом [ 4.5 GB ] Секс в большом городе : ХХХ Пародия / Sex and the City: The Original XXX Parody Digital Sin / New Sensations) [2010 Feature Parody Behind The Scenes DVD Bonus Bloopers WEB-DL 720p Оригинальный] DJASFUL Скачать
1 | 0
Порно фильмы с сюжетом [ 2.07 GB ] Город Наслаждений / Pleasureville: A DP XXX Parody [2018 Feature Parody WEB-DL Оригинальный] DJASFUL Скачать
1 | 0
Политика, религия [ 1.15 GB ] Богородица. Земной путь [2017 Документальный HDTVRip 720p Перевод отсутствует Оригинал] Armstrong Скачать
1 | 0
Порно фильмы с сюжетом [ 1.12 GB ] Преследуемый: Город Ангелов / The Hunted: City of Angels [2014 Feature DVDRip Оригинальный] DJASFUL Скачать
1 | 0
Порно фильмы HD [ 9.35 GB ] Город Пороков / City Of Vices [2014 Feature Anal HD 1080p Оригинальный] DJASFUL Скачать
1 | 0
Порно фильмы без сюжета [ 691 MB ] Город Шлюшек 2 / Cite Beurettes 2 [2009 All Sex Oral Anal DVDRipОригинальный ] DJASFUL Скачать
1 | 0

28-11-2019 20:33  

Отключить всю рекламу на сайте

    Дорогой пользователь! Огромная просьба, поблагодарите релизера, оцените раздачу и оставьте свои комментарий, если Вы скачали Город через торрент бесплатно! Внесите свою лепту в развитие PiratBit!
    Комментировать посты могут только пользователи прошедшие не сложную регистрацию
    Показать сообщения:    

    Город через торрент
    Скачать бесплатно Город
    Город скачать торрент
    Город смотреть онлайн
    Cкачать фильм Город бесплатно
    Город скачать торрент в хорошем качестве
    Город смотреть онлайн бесплатно в хорошем качестве


    Вы не можете начинать темы
    Вы не можете отвечать на сообщения
    Вы не можете редактировать свои сообщения
    Вы не можете удалять свои сообщения
    Вы не можете голосовать в опросах
    Вы не можете прикреплять файлы к сообщениям
    Вы можете скачивать файлы