Ссылка на приватное зеркало всего за 1$. Внимание количество ограничено!!!

iTunes

iTunes

iTunes

1

iTunes

iTunes

iTunes

iTunes

iTunes

30
pack

$ от Little Big

ВАЖНО

!!Акция!!

Alien_RageХит недели

RePack

Resident Evil 21

ИГРА 18+

pack

RePack

jed

!!Акция!!

Alien_Rage

RePack

fifa19

RePack

Assassins Creed: Odyssey

RePack

NEED FOR SPEED™ PAYBACK

4 сезон

9 сезон

Бесстыжие 9 сезон

Все сериалы

все сериалы на PB.wtf

RePack

FAR CRY 5
  

Уна / Una (Бенедикт Эндрюс) [2016, драма, триллер, WEB-DL 1080p] MVO [Лицензия / iTunes] pb.wtf

Уна через торрент pb.wtf

Размер: 3.3 GB | Добавлен: 3 года назад | Торрент скачан:160 раз
Скачать  

07-07-2017 13:21 Уна Скачать торрент  

Уна / Una
««1 женщина. 1 мужчина. 1 девочка»»

Год выпуска: 2016
Страна: Великобритания, США, Канада
Жанр: драма, триллер

Продолжительность: 01:34:02
Перевод: Профессиональный многоголосый [Лицензия / iTunes]
Режиссер: Бенедикт Эндрюс
В ролях:

Руни Мара (Una), Риз Ахмед (Scott), Бен Мендельсон (Ray), Тобайас Мензис (Mark), Тара Фитцджеральд (Andrea), Наташа Литтл (Yvonne), Поппи Корби-Туч (Poppy), Изобель Моллой (Holly), Киаран МакМенамин (John), Ричард Каннингэм (Prosecutor), Софи Стэнтон (Carol), Ласко Аткинс (Packing Staff)
Описание:
15 лет назад юная Уна сбежала из дома со взрослым Рэем... Спустя годы в одном из журналов Уне попадается фотография бывшего: у него новая жизнь, новая семья и новое имя. Их внезапная встреча обнажит не только погребенные навсегда воспоминания, но и вытащит на поверхность потаенные желания, которые грозят разрушить их жизни до основания.
Рейтинг:

Качество: WEB-DL 1080p
Формат: MKV
Видео: AVC, 1912x794 (2.40:1), 4643 kbps, 23,976 fps, 0,128 bpp
Аудио: русский / AC3 / 5.1 / 48 kHz / 384 kbps / |MVO|
Навигация по главам: есть

General
Unique ID : 202319953320925306359558612341960101092 (0x983567D85616F5EF83B2E749F72A4CE4)
Complete name : E:\Una.2016.P.1080p.WEB-DL.mkv
Format : Matroska
Format version : Version 4 / Version 2
File size : 3.30 GiB
Duration : 1 h 34 min
Overall bit rate : 5 030 kb/s
Encoded date : UTC 2017-07-07 13:10:08
Writing application : mkvmerge v13.0.0 ('The Juggler') 64bit
Writing library : libebml v1.3.4 + libmatroska v1.4.5

Video
ID : 1
Format : AVC
Format/Info : Advanced Video Codec
Format profile : High@L4
Format settings, CABAC : Yes
Format settings, ReFrames : 5 frames
Codec ID : V_MPEG4/ISO/AVC
Duration : 1 h 34 min
Bit rate : 4 644 kb/s
Width : 1 912 pixels
Height : 794 pixels
Display aspect ratio : 2.40:1
Frame rate mode : Constant
Frame rate : 23.976 (24000/1001) FPS
Color space : YUV
Chroma subsampling : 4:2:0
Bit depth : 8 bits
Scan type : Progressive
Bits/(Pixel*Frame) : 0.128
Stream size : 3.05 GiB (92%)
Language : English
Default : Yes
Forced : No
Color range : Limited
Color primaries : BT.709
Transfer characteristics : BT.709
Matrix coefficients : BT.709

Audio
ID : 2
Format : AC-3
Format/Info : Audio Coding 3
Mode extension : CM (complete main)
Format settings, Endianness : Big
Codec ID : A_AC3
Duration : 1 h 34 min
Bit rate mode : Constant
Bit rate : 384 kb/s
Channel(s) : 6 channels
Channel positions : Front: L C R, Side: L R, LFE
Sampling rate : 48.0 kHz
Frame rate : 31.250 FPS (1536 spf)
Compression mode : Lossy
Stream size : 258 MiB (8%)
Language : Russian
Default : Yes
Forced : No

Menu
00:00:00.000 : en:1
00:07:51.000 : en:2
00:17:16.000 : en:3
00:26:54.000 : en:4
00:36:24.000 : en:5
00:47:19.000 : en:6
00:55:20.000 : en:7
01:05:40.000 : en:8
01:15:51.000 : en:9
01:25:35.000 : en:10
pb.wtf



Скачать Уна через торрент http://i5.imageban.ru/out/2017/07/07/8ba31c341fe31ffc72021d69d847fac7.jpg Скачать фильм Уна через торрент бесплантно в хорошем качестве Описание: 15 лет назад юная Уна сбежала из дома со взрослым Рэем... Спустя годы в одном из журналов Уне попадается фотография бывшего: у ... 10 10 3
Торрент: Зарегистрирован [2017-07-07 13:21] · скачан: 160 раз
Статус: √ проверено
Размер: 3.3 GB
Как cкачать? Как скачать Уна через торрент | qTorrent

% Раздел Тема Автор DL S | L
Зарубежные сериалы [ 7.86 GB ] Маньяк / Maniac / Сезон: 1 / Серии: 1-10 из 10 [2018 WEB-DLRip] [MVO] killermax2013 Скачать
1 | 0
Аниме [HD 720p, 1080p] [ 14.7 GB ] Пираты "Черной Лагуны" / Black Lagoon [2006 аниме BDRip 720p Многоголосый закадровый "MC Entertainment" ] RodDog Скачать
1 | 0
Зарубежные сериалы [ 2.47 GB ] Чёрная луна / Luna Nera / Сезоны: 1 / Серии: 1-4 из 6 [2020 WEB-DLRip] MVO [TVShows] bober100 Скачать
1 | 0
Зарубежные сериалы [ 6.34 GB ] Чёрная луна / Luna Nera / Сезон: 1 / Серии: 1-6 из 6 [2020 WEB-DL 720p] [MVO] killermax2013 Скачать
1 | 0
Зарубежные сериалы [ 9.93 GB ] Чёрная луна / Luna Nera / Сезон: 1 / Серии: 1-6 из 6 [2020 WEB-DL 1080p] [MVO] killermax2013 Скачать
1 | 0
T Зарубежные сериалы [ 13.9 GB ] Чёрная луна / Luna Nera / Сезоны: 1 / Серии: 1-6 из 6 [2020 WEBRip 1080p] MVO [Octopus] bober100 Скачать
1 | 0
T Зарубежные сериалы [ 9.01 GB ] Чёрная луна / Luna Nera / Сезоны: 1 / Серии: 1-6 из 6 [2020 WEBRip 720p] MVO [Octopus] bober100 Скачать
1 | 0

28-11-2019 20:33  

Отключить всю рекламу на сайте

    Дорогой пользователь! Огромная просьба, поблагодарите релизера, оцените раздачу и оставьте свои комментарий, если Вы скачали Уна через торрент бесплатно! Внесите свою лепту в развитие PiratBit!
    Комментировать посты могут только пользователи прошедшие не сложную регистрацию
    Показать сообщения:    

    Уна через торрент
    Скачать бесплатно Уна
    Уна скачать торрент
    Уна смотреть онлайн
    Cкачать фильм Уна бесплатно
    Уна скачать торрент в хорошем качестве
    Уна смотреть онлайн бесплатно в хорошем качестве


    Вы не можете начинать темы
    Вы не можете отвечать на сообщения
    Вы не можете редактировать свои сообщения
    Вы не можете удалять свои сообщения
    Вы не можете голосовать в опросах
    Вы не можете прикреплять файлы к сообщениям
    Вы можете скачивать файлы