Ссылка на приватное зеркало всего за 1$. Внимание количество ограничено!!!

iTunes

iTunes

iTunes

1

iTunes

iTunes

iTunes

iTunes

iTunes

30
pack

Новость дня

ВАЖНО

!!Акция!!

Alien_RageХит недели

RePack

Resident Evil 21

ИГРА 18+

pack

RePack

jed

!!Акция!!

Alien_Rage

RePack

fifa19

RePack

Assassins Creed: Odyssey

RePack

NEED FOR SPEED™ PAYBACK

4 сезон

9 сезон

Бесстыжие 9 сезон

Все сериалы

все сериалы на PB.wtf

RePack

FAR CRY 5
  

Ближе, чем кажется (Наталия Беляускене, Герман Дюкарев) [2015, Семейный, HDTVRip] pb.wtf

Ближе, чем кажется через торрент pb.wtf

Размер: 749 MB | Добавлен: 2 года 10 мес. назад | Торрент скачан:25 раз
Скачать  

08-07-2017 06:48 Ближе, чем кажется Скачать торрент  

Ближе, чем кажется
Год выпуска: 2015
Страна: Россия
Жанр: Семейный
Продолжительность: 02:00:38
Перевод: Не требуется
Субтитры: отсутствуют

Режиссер: Наталия Беляускене, Герман Дюкарев



В ролях:

Тимофей Трибунцев, Даниил Изотов, Максим Сапрыкин, Руслан Щедрин, Владимир Свирский, Евгения Дмитриева, Ия Нинидзе, Елизавета Зарубина, Елена Бушуева, Наталья Рычкова, Евгений Коряковский, Виолетта Давыдовская, Наталья Дрожжина, Вероника Кротова, Митя Лабуш, Михаил Богдасаров, Руслана Рухадзе, Валентина Шанаева, Александра Велескевич, Алёна Проданова

Описание:

Четыре независимых сюжета, которые объединяет извечная тема отцов и детей, особенно актуальная для русской литературы и отечественного кино. Каждая история рассказывает о наших современниках и затрагивает животрепещущие вопросы нравственности, непонимания, благодарности и любви.4 героя. Каждый из них встаёт перед выбором, который способен определить последующий ход его жизни. 6-летнее музыкальное дарование Коля Пыхтин, приезжает на конкурс в Москву. О чём он мечтает? В его мыслях лишь желание отыскать родного отца, а не победа. Второй юный герой — мальчик-сирота по имени Сеня. Он находит потайной ход, через который можно попасть в тихую морскую бухту, и теперь он должен решить, что лучше для него: попытаться найти общий язык с приёмными родителями или навсегда остаться в уединении. Третий герой, Георгий, не одобряет поступок родной дочери, которая сбежала из дома вместе со своим возлюбленным. Скрывая правду от окружающих, мужчина вынужден говорить всем, что девушка уехала учиться. Четвёртая история показывает то, как 8-летняя Саша постепенно сближается со своим отчимом, ведь когда маме нужна помощь ни девочка, ни «новый папа» не могут остаться в стороне.

Качество: HDTVRip
Формат: AVI
Видео кодек: XviD
Аудио кодек: MP3

Видео: 608x256 (2.39:1), 25 fps, XviD build 73 ~730 kbps avg, 0.19 bit/pixel
Аудио#1: 44.100 kHz, MPEG Layer 3, 2 ch, ~128.00 kbps avg

скриншот   скриншот   скриншот   скриншот   скриншот  

General
Complete name : D:Изготовление рипаBlizhe.chem.kazhitsja.2015.HDTVRip by shkiper.avi
Format : AVI
Format/Info : Audio Video Interleave
File size : 749 MiB
Duration : 2 h 0 min
Overall bit rate : 868 kb/s
Writing application : VirtualDubMod 1.5.10.3 | www.virtualdub-fr.org || (build 2550/release)
Writing library : VirtualDubMod build 2550/release

Video
ID : 0
Format : MPEG-4 Visual
Format profile : Advanced Simple@L5
Format settings, BVOP : 1
Format settings, QPel : No
Format settings, GMC : No warppoints
Format settings, Matrix : Custom
Codec ID : XVID
Codec ID/Hint : XviD
Duration : 2 h 0 min
Bit rate : 731 kb/s
Width : 608 pixels
Height : 256 pixels
Display aspect ratio : 2.40:1
Frame rate : 25.000 FPS
Color space : YUV
Chroma subsampling : 4:2:0
Bit depth : 8 bits
Scan type : Progressive
Compression mode : Lossy
Bits/(Pixel*Frame) : 0.188
Stream size : 631 MiB (84%)
Writing library : XviD 73

Audio
ID : 1
Format : MPEG Audio
Format version : Version 1
Format profile : Layer 3
Codec ID : 55
Codec ID/Hint : MP3
Duration : 2 h 0 min
Bit rate mode : Constant
Bit rate : 128 kb/s
Channel(s) : 2 channels
Sampling rate : 44.1 kHz
Compression mode : Lossy
Stream size : 110 MiB (15%)
Alignment : Split accross interleaves
Interleave, duration : 40 ms (1.00 video frame)
Interleave, preload duration : 500 ms
Writing library : LAME3.99r
Encoding settings : -m s -V 4 -q 2 -lowpass 17 -b 128

pb.wtf



Скачать Ближе, чем кажется через торрент http://i96.fastpic.ru/big/2017/0707/74/f12cda6b75e09b9ebb060f94e5baa174.jpg Скачать фильм Ближе, чем кажется через торрент бесплантно в хорошем качестве Описание: Четыре независимых сюжета, которые объединяет извечная тема отцов и детей, особенно актуальная для русской литературы и ... 10 10 5
Торрент: Зарегистрирован [2017-07-08 06:48] · скачан: 25 раз
Статус: √ проверено
Размер: 749 MB
Как cкачать? Как скачать Ближе, чем кажется через торрент | qTorrent

% Раздел Тема Автор DL S | L
Наши новые фильмы 2015 [ 1.72 GB ] Ближе чем кажется [2015 HDTVRip-AVC] bober100 Скачать
1 | 0

28-11-2019 20:33  

Отключить всю рекламу на сайте

    Дорогой пользователь! Огромная просьба, поблагодарите релизера, оцените раздачу и оставьте свои комментарий, если Вы скачали Ближе, чем кажется через торрент бесплатно! Внесите свою лепту в развитие PiratBit!
    Комментировать посты могут только пользователи прошедшие не сложную регистрацию
    Показать сообщения:    

    Ближе, чем кажется через торрент
    Скачать бесплатно Ближе, чем кажется
    Ближе, чем кажется скачать торрент
    Ближе, чем кажется смотреть онлайн
    Cкачать фильм Ближе, чем кажется бесплатно
    Ближе, чем кажется скачать торрент в хорошем качестве
    Ближе, чем кажется смотреть онлайн бесплатно в хорошем качестве


    Вы не можете начинать темы
    Вы не можете отвечать на сообщения
    Вы не можете редактировать свои сообщения
    Вы не можете удалять свои сообщения
    Вы не можете голосовать в опросах
    Вы не можете прикреплять файлы к сообщениям
    Вы можете скачивать файлы