Ссылка на приватное зеркало всего за 1$. Внимание количество ограничено!!!


iTunes

1+1

iTunes

мы

WEB-DL

1

iTunes

Чернобыль

iTunes

Ральф против интернета

Лицензия

ПШазам

Лицензия

Оно 2

WEB-DL

30
pack

Вам бонус

ВАЖНО

!!Акция!!

Alien_RageХит недели

RePack

Resident Evil 21

ИГРА 18+

pack

RePack

jed

!!Акция!!

Alien_Rage

RePack

fifa19

RePack

Assassins Creed: Odyssey

RePack

NEED FOR SPEED™ PAYBACK

4 сезон

9 сезон

Бесстыжие 9 сезон

Все сериалы

все сериалы на PB.wtf

RePack

FAR CRY 5
Ребята, катастрофически не хватает 1900р. для оплаты серверов за Октябрь (всвязи с блокировками трафик упал в 3 раза), 1-2р., выручайте.
  

Вне закона / Le Marginal (Жак Дере) [1983 г., Боевик, криминал, DVDRip-AVC, Дубляж, Профессиональный (многоголосый)] от ExKinoRay pb.wtf

Вне закона через торрент pb.wtf

Раздают: 1 [ 0 KB/s ]
Размер: 2.44 GB | Добавлен: 2 года 5 мес. назад | Торрент скачан:63 раза
Скачать  

08-07-2017 08:54 Вне закона Скачать торрент  

Вне закона / Le Marginal
Год выпуска: 1983
Страна: Франция
Жанр: Боевик, криминал
Продолжительность: 01:37:29
Перевод: Дубляж

Режиссер: Жак Дере

Премьера в мире: 26 октября 1983

rating

В ролях: Жан-Поль Бельмондо, Генри Сильва, Карлос Сотто Майор, Пьер Вернье, Морис Барье, Клод Броссе, Чеки Карио, Жак Мори, Роже Дюма, Габриэль Каттан

Описание: Бескомпромиссный комиссар полиции преследует крупного марсельского наркобарона. Преступный босс пытается купить комиссара, как и многих других до него, но главный герой отвергает сделку, продолжая сражаться в одиночку.

Доп. информация: Перевод: Дублированный (Советский дубляж), профессиональный многоголосый (НТВ)
В обоих переводах Бельмондо озвучивает Караченцов.

Качество: DVDRip-AVC
Формат: MKV
Видео кодек: MPEG4
Аудио кодек: AC3
Видео: MPEG-4, 3000 Кбит/с, 676x572@961x572, 25 кадров/сек
Аудио#1: Русский (AC3, 2 ch, 192 Кбит/с, 48 КГц)
Аудио#2: Русский (AC3, 2 ch, 192 Кбит/с, 48 КГц)
Аудио#3: Французский (AC3, 2 ch, 192 Кбит/с, 48 КГц)

Релиз от:




raw [info]: 676x572p 64:45 @ 25/1 fps (cfr)
x264 [info]: using SAR=64/45
x264 [info]: using cpu capabilities: MMX2 SSE2Fast LZCNT
x264 [info]: profile High, level 4.1
x264 [info]: frame I:885 Avg QP:18.74 size: 58120
x264 [info]: frame P:30266 Avg QP:21.38 size: 26984
x264 [info]: frame B:115080 Avg QP:22.70 size: 11508
x264 [info]: consecutive B-frames: 1.5% 3.0% 8.1% 18.7% 14.9% 34.9% 6.3% 3.1% 2.6% 2.0% 1.7% 1.5% 0.7% 0.6% 0.2% 0.1% 0.1%
-----
Общее
Уникальный идентификатор : 218073969435573069677083126611902338358 (0xA40F84CEF203910D8F11DF2B0F661536)
Полное имя : E:\Le.Marginal.1983.DVDRip-AVC.ExKinoRay.mkv
Формат : Matroska
Версия формата : Version 2
Размер файла : 2,44 Гбайт
Продолжительность : 1 ч. 37 м.
Общий поток : 3577 Кбит/сек
Дата кодирования : UTC 2017-07-08 05:36:22
Программа кодирования : mkvmerge v7.8.0 ('River Man') 32bit built on Apr 3 2015 12:11:22
Библиотека кодирования : libebml v1.3.1 + libmatroska v1.4.2

Видео
Идентификатор : 1
Формат : AVC
Формат/Информация : Advanced Video Codec
Профиль формата : High@L4.1
Параметр CABAC формата : Да
Параметр ReFrames формата : 14 кадров
Идентификатор кодека : V_MPEG4/ISO/AVC
Продолжительность : 1 ч. 37 м.
Битрейт : 3000 Кбит/сек
Ширина : 676 пикселей
Высота : 572 пикселя
Соотношение сторон : 5:3
Соотношение сторон в оригинале : 5:3
Режим частоты кадров : Постоянный
Частота кадров : 25,000 кадров/сек
Цветовое пространство : YUV
Субдискретизация насыщенности : 4:2:0
Битовая глубина : 8 бит
Тип развёртки : Прогрессивная
Бит/(Пиксели*Кадры) : 0.310
Размер потока : 1,99 Гбайт (82%)
Библиотека кодирования : x264 core 148 r2638 7599210
Настройки программы : cabac=1 / ref=14 / deblock=1:-2:-2 / analyse=0x3:0x133 / me=umh / subme=10 / psy=1 / psy_rd=1.05:0.15 / mixed_ref=1 / me_range=32 / chroma_me=1 / trellis=2 / 8x8dct=1 / cqm=0 / deadzone=21,11 / fast_pskip=0 / chroma_qp_offset=-3 / threads=4 / lookahead_threads=1 / sliced_threads=0 / nr=0 / decimate=0 / interlaced=0 / bluray_compat=0 / constrained_intra=0 / bframes=16 / b_pyramid=2 / b_adapt=2 / b_bias=0 / direct=3 / weightb=1 / open_gop=0 / weightp=2 / keyint=250 / keyint_min=25 / scenecut=40 / intra_refresh=0 / rc=2pass / mbtree=0 / bitrate=3000 / ratetol=1.0 / qcomp=0.60 / qpmin=0 / qpmax=69 / qpstep=4 / cplxblur=20.0 / qblur=0.5 / ip_ratio=1.40 / pb_ratio=1.30 / aq=1:1.00
Язык : English
Default : Да
Forced : Нет
Цветовой диапазон : Limited
Основные цвета : BT.601 NTSC
Характеристики трансфера : BT.601
Коэффициенты матрицы : BT.601

Аудио #1
Идентификатор : 2
Формат : AC-3
Формат/Информация : Audio Coding 3
Расширение режима : CM (complete main)
Параметр Endianness формата : Big
Идентификатор кодека : A_AC3
Продолжительность : 1 ч. 37 м.
Вид битрейта : Постоянный
Битрейт : 192 Кбит/сек
Каналы : 2 канала
Расположение каналов : Front: L R
Частота : 48,0 КГц
Частота кадров : 31,250 кадров/сек (1536 spf)
Метод сжатия : С потерями
Размер потока : 134 Мбайт (5%)
Заголовок : Дубляж
Язык : Russian
Default : Да
Forced : Нет

Аудио #2
Идентификатор : 3
Формат : AC-3
Формат/Информация : Audio Coding 3
Расширение режима : CM (complete main)
Параметр Endianness формата : Big
Идентификатор кодека : A_AC3
Продолжительность : 1 ч. 37 м.
Вид битрейта : Постоянный
Битрейт : 192 Кбит/сек
Каналы : 2 канала
Расположение каналов : Front: L R
Частота : 48,0 КГц
Частота кадров : 31,250 кадров/сек (1536 spf)
Метод сжатия : С потерями
Размер потока : 134 Мбайт (5%)
Заголовок : Профессиональный
Язык : Russian
Default : Нет
Forced : Нет

Аудио #3
Идентификатор : 4
Формат : AC-3
Формат/Информация : Audio Coding 3
Расширение режима : CM (complete main)
Параметр Endianness формата : Big
Идентификатор кодека : A_AC3
Продолжительность : 1 ч. 37 м.
Вид битрейта : Постоянный
Битрейт : 192 Кбит/сек
Каналы : 2 канала
Расположение каналов : Front: L R
Частота : 48,0 КГц
Частота кадров : 31,250 кадров/сек (1536 spf)
Метод сжатия : С потерями
Размер потока : 134 Мбайт (5%)
Язык : French
Default : Нет
Forced : Нет

pb.wtf



Скачать Вне закона через торрент http://i057.radikal.ru/1707/83/fff509244ded.jpg Скачать фильм Вне закона через торрент бесплантно в хорошем качестве Описание: Бескомпромиссный комиссар полиции преследует крупного марсельского наркобарона. Преступный босс пытается купить комиссара, как и ... 10 10 1
Info! Золотая раздача, скачанное не засчитывается.
Торрент: Зарегистрирован [2017-07-08 08:54] · скачан: 63 раз
Статус: √ проверено
Размер: 2.44 GB
Как cкачать? Как скачать Вне закона через торрент | qTorrent

28-11-2019 20:33  

Отключить всю рекламу на сайте

08-07-2017 09:08 Вне закона Скачать торрент  

Топик был перенесен из форума Оформление раздач (Кино, Видео и ТВ) в форум Классика зарубежного кино


-Lexx-pb.wtf



    Дорогой пользователь! Огромная просьба, поблагодарите релизера, оцените раздачу и оставьте свои комментарий, если Вы скачали Вне закона через торрент бесплатно! Внесите свою лепту в развитие PiratBit!
    Комментировать посты могут только пользователи прошедшие не сложную регистрацию
    Показать сообщения:    

    Вне закона через торрент
    Скачать бесплатно Вне закона
    Вне закона скачать торрент
    Вне закона смотреть онлайн
    Cкачать фильм Вне закона бесплатно
    Вне закона скачать торрент в хорошем качестве
    Вне закона смотреть онлайн бесплатно в хорошем качестве


    Вы не можете начинать темы
    Вы не можете отвечать на сообщения
    Вы не можете редактировать свои сообщения
    Вы не можете удалять свои сообщения
    Вы не можете голосовать в опросах
    Вы не можете прикреплять файлы к сообщениям
    Вы можете скачивать файлы