Ссылка на приватное зеркало нашего сайта всего за 1$. Внимание количество ограничено!!!

2 сезон

iTunes

1 сезон

1

iTunes

iTunes

iTunes

1 сезон

RePack

30

ИГРА 18+

pack

ВАЖНО

!!Акция!!

Alien_RageХит недели

RePack

MK11
pack

Забери бонус

RePack

jed

!!Акция!!

Alien_Rage

RePack

fifa19

RePack

Assassins Creed: Odyssey

RePack

NEED FOR SPEED™ PAYBACK

4 сезон

9 сезон

Бесстыжие 9 сезон

Все сериалы

все сериалы на PB.wtf

RePack

FAR CRY 5
  

На холостом ходу / Running on Empty (Сидни Люмет) [1988, драма, мелодрама, криминал, музыка, BDRip 720p by msltel] DVO pb.wtf

На холостом ходу через торрент pb.wtf

Размер: 5.38 GB | Добавлен: 3 года 3 мес. назад | Торрент скачан:9 раз
Скачать  

08-07-2017 09:05 На холостом ходу Скачать торрент  

Название: На холостом ходу
Оригинальное название: Running on Empty
Год выпуска: 1988
Страна: США
Жанр: драма, мелодрама, криминал, музыка
Продолжительность: 01:58:16
Перевод: профессиональный двухголосый

Режиссер: Сидни Люмет
В ролях: Кристин Лахти, Ривер Феникс, Джадд Хёрш, Йонас Эйбри, Марта Плимптон, Эд Краули, Л. М. Кит Карсон, Стивен Хилл, Аугуста Дэбни, Дэвид Маргулис, Марсия Жан Кертц, Слоун Шелтон, Майкл Ботмэн, Дженни Люмет, Донна Хэновер, Эльжбета Чижевска

Описание: 17-летний Денни - старший сын в семье Энни и Артура Поуп. Вот уже 15 лет семейство Поупов живёт под вымышленными именами. Когда-то, в бурные 60-е, родители Денни под воздействием больших перемен в обществе и политике стали активистами антивоенного движения и попали в «чёрные списки». С тех пор у них началась нелегальная жизнь. Но сыновья подросли, и кочевать с места на место становится всё сложнее. К тому же в Денни вдруг проявляется врождённый талант пианиста, и он получает приглашение из престижной музыкальной школы. Юноше необходим инструмент, который семья не может себе позволить - ведь недалёк тот день, когда снова придётся сниматься с насиженного места. А у Денни — первая любовь, и он страдает, понимая, что его скрытность серьёзно осложняет отношения с Лорной. Молодому человеку предстоит нелёгкий выбор между семьей и возможностью быть свободным, идти своим путём...



Качество: BDRip 720p
Формат: MKV
Видео: MPEG-4 AVC, 6242 Кбит/с, 1280x720, 23.976 кадр/с
Аудио 1: русский, AC3, 192 kbps, 2 ch, 48 kHz [профессиональный двухголосый, Маша Белкина и Александр Напарин]
Аудио 2: английский, AC3, 192 kbps, 2 ch, 48 kHz [оригинал]
Субтитры 1: русские (перевод Виктор Косов, субтитры DenisLр)
Субтитры 2: английские
Имеются неименованные главы/чаптеры.
Общее
Уникальный идентификатор : 185222190201144547138391063048425632607 (0x8B587F0A10C42593A1A18EFC69F8F35F)
Полное имя : D:\Video\На холостом ходу.1988.BDRip.720p by msltel.mkv
Формат : Matroska
Версия формата : Version 4 / Version 2
Размер файла : 5,38 Гбайт
Продолжительность : 1 ч. 56 м.
Общий поток : 6628 Кбит/сек
Название фильма : Rip by msltel
Дата кодирования : UTC 2017-07-07 07:03:18
Программа кодирования : mkvmerge v8.2.0 ('World of Adventure') 64bit
Библиотека кодирования : libebml v1.3.1 + libmatroska v1.4.2

Видео
Идентификатор : 1
Формат : AVC
Формат/Информация : Advanced Video Codec
Профиль формата : High@L4.1
Параметр CABAC формата : Да
Параметр ReFrames формата : 9 кадров
Идентификатор кодека : V_MPEG4/ISO/AVC
Продолжительность : 1 ч. 56 м.
Битрейт : 6242 Кбит/сек
Ширина : 1280 пикселей
Высота : 720 пикселей
Соотношение сторон : 16:9
Режим частоты кадров : Постоянный
Частота кадров : 23,976 (24000/1001) кадра/сек
Цветовое пространство : YUV
Субдискретизация насыщенности : 4:2:0
Битовая глубина : 8 бит
Тип развёртки : Прогрессивная
Бит/(Пиксели*Кадры) : 0.282
Размер потока : 5,07 Гбайт (94%)
Библиотека кодирования : x264 core 146 r2538 121396c
Настройки программы : cabac=1 / ref=9 / deblock=1:-3:-2 / analyse=0x3:0x113 / me=umh / subme=11 / psy=1 / psy_rd=1.00:0.15 / mixed_ref=1 / me_range=32 / chroma_me=1 / trellis=2 / 8x8dct=1 / cqm=0 / deadzone=21,11 / fast_pskip=0 / chroma_qp_offset=-3 / threads=6 / lookahead_threads=1 / sliced_threads=0 / nr=0 / decimate=1 / interlaced=0 / bluray_compat=0 / constrained_intra=0 / bframes=11 / b_pyramid=2 / b_adapt=2 / b_bias=0 / direct=1 / weightb=1 / open_gop=0 / weightp=2 / keyint=230 / keyint_min=23 / scenecut=40 / intra_refresh=0 / rc_lookahead=40 / rc=crf / mbtree=0 / crf=19.0 / qcomp=0.60 / qpmin=0 / qpmax=69 / qpstep=4 / vbv_maxrate=62500 / vbv_bufsize=78125 / crf_max=0.0 / nal_hrd=none / filler=0 / ip_ratio=1.40 / pb_ratio=1.30 / aq=1:1.00
Язык : English
Default : Да
Forced : Нет

Аудио #1
Идентификатор : 2
Формат : AC-3
Формат/Информация : Audio Coding 3
Параметр Endianness формата : Big
Идентификатор кодека : A_AC3
Продолжительность : 1 ч. 56 м.
Вид битрейта : Постоянный
Битрейт : 192 Кбит/сек
Каналы : 2 канала
Расположение каналов : Front: L R
Частота : 48,0 КГц
Частота кадров : 31,250 кадров/сек (1536 spf)
Битовая глубина : 16 бит
Метод сжатия : С потерями
Размер потока : 160 Мбайт (3%)
Заголовок : DVO (Маша Белкина и Александр Напарин)
Язык : Russian
ServiceKind/String : Complete Main
Default : Да
Forced : Нет

Аудио #2
Идентификатор : 3
Формат : AC-3
Формат/Информация : Audio Coding 3
Параметр Endianness формата : Big
Идентификатор кодека : A_AC3
Продолжительность : 1 ч. 56 м.
Вид битрейта : Постоянный
Битрейт : 192 Кбит/сек
Каналы : 2 канала
Расположение каналов : Front: L R
Частота : 48,0 КГц
Частота кадров : 31,250 кадров/сек (1536 spf)
Битовая глубина : 16 бит
Метод сжатия : С потерями
Размер потока : 160 Мбайт (3%)
Заголовок : original
Язык : English
ServiceKind/String : Complete Main
Default : Нет
Forced : Нет

Текст #1
Идентификатор : 4
Формат : UTF-8
Идентификатор кодека : S_TEXT/UTF8
Идентификатор кодека/Информация : UTF-8 Plain Text
Продолжительность : 1 ч. 52 м.
Битрейт : 79 бит/сек
ElementCount : 1197
Размер потока : 65,8 Кбайт (0%)
Заголовок : русские (перевод Виктор Косов, субтитры DenisLр)
Язык : Russian
Default : Нет
Forced : Нет

Текст #2
Идентификатор : 5
Формат : UTF-8
Идентификатор кодека : S_TEXT/UTF8
Идентификатор кодека/Информация : UTF-8 Plain Text
Продолжительность : 1 ч. 54 м.
Битрейт : 47 бит/сек
ElementCount : 1648
Размер потока : 39,5 Кбайт (0%)
Заголовок : английские
Язык : English
Default : Нет
Forced : Нет

Меню
00:00:00.000 : :Chapter 01
00:01:49.108 : :Chapter 02
00:07:56.475 : :Chapter 03
00:12:17.820 : :Chapter 04
00:15:02.359 : :Chapter 05
00:18:29.106 : :Chapter 06
00:20:31.395 : :Chapter 07
00:24:25.462 : :Chapter 08
00:29:26.681 : :Chapter 09
00:31:59.916 : :Chapter 10
00:34:55.217 : :Chapter 11
00:37:09.726 : :Chapter 12
00:40:31.429 : :Chapter 13
00:43:14.592 : :Chapter 14
00:45:24.804 : :Chapter 15
00:48:10.219 : :Chapter 16
00:54:01.237 : :Chapter 17
00:58:52.570 : :Chapter 18
01:05:15.911 : :Chapter 19
01:07:22.371 : :Chapter 20
01:09:18.988 : :Chapter 21
01:17:00.613 : :Chapter 22
01:21:37.390 : :Chapter 23
01:23:32.423 : :Chapter 24
01:27:24.322 : :Chapter 25
01:29:39.622 : :Chapter 26
01:34:16.192 : :Chapter 27
01:41:26.078 : :Chapter 28
01:44:50.074 : :Chapter 29
01:47:23.310 : :Chapter 30
01:51:26.304 : :Chapter 31
01:54:19.853 : :Chapter 32
01:56:13.966 : :Chapter 33
pb.wtf



Скачать На холостом ходу через торрент http://s008.radikal.ru/i304/1707/fb/aee61e12b7ac.jpg Скачать фильм На холостом ходу через торрент бесплантно в хорошем качестве Описание: 17-летний Денни - старший сын в семье Энни и Артура Поуп. Вот уже 15 лет семейство Поупов живёт под вымышленными именами. ... 8.7 10 3
Info! Золотая раздача, скачанное не засчитывается.
Торрент: Зарегистрирован [2017-07-08 09:05] · скачан: 9 раз
Статус: √ проверено
Размер: 5.38 GB
Как cкачать? Как скачать На холостом ходу через торрент | qTorrent

% Раздел Тема Автор DL S | L
R.G. Resident & PiratVoice - Фильмы, Видео [ 4.11 GB ] На холостом ходу / Running on Empty [1988 BDRip-AVC] DVO - R.G.Resident schultz Скачать
1 | 0
Фильмы [HD 720p, 1080p] (Хороший звук DUB, MVO) [ 6.98 GB ] На холостом ходу / Running on Empty [1988 BDRip 720p от _denis_100 | NNNB] DVO + Original + Sub _denis_100 Скачать
1 | 0
Фильмы [HD 720p, 1080p] (Хороший звук DUB, MVO) [ 16.83 GB ] На холостом ходу / Running on Empty [1988 музыка BDRip 1080p by msltel] DVO msltel Скачать
1 | 0

28-11-2019 20:33  

Отключить всю рекламу на сайте

    Дорогой пользователь! Огромная просьба, поблагодарите релизера, оцените раздачу и оставьте свои комментарий, если Вы скачали На холостом ходу через торрент бесплатно! Внесите свою лепту в развитие PiratBit!
    Комментировать посты могут только пользователи прошедшие не сложную регистрацию
    Показать сообщения:    

    На холостом ходу через торрент
    Скачать бесплатно На холостом ходу
    На холостом ходу скачать торрент
    На холостом ходу смотреть онлайн
    Cкачать фильм На холостом ходу бесплатно
    На холостом ходу скачать торрент в хорошем качестве
    На холостом ходу смотреть онлайн бесплатно в хорошем качестве


    Вы не можете начинать темы
    Вы не можете отвечать на сообщения
    Вы не можете редактировать свои сообщения
    Вы не можете удалять свои сообщения
    Вы не можете голосовать в опросах
    Вы не можете прикреплять файлы к сообщениям
    Вы можете скачивать файлы