Ссылка на приватное зеркало всего за 1$. Внимание количество ограничено!!!

iTunes

1+1

iTunes

мы

WEB-DL

1

iTunes

Чернобыль

iTunes

Ральф против интернета

Лицензия

ПШазам

Лицензия

Оно 2

Лицензия

30
pack

Вам бонус

ВАЖНО

!!Акция!!

Alien_RageХит недели

RePack

Resident Evil 21

ИГРА 18+

pack

RePack

jed

!!Акция!!

Alien_Rage

RePack

fifa19

RePack

Assassins Creed: Odyssey

RePack

NEED FOR SPEED™ PAYBACK

3 сезон

9 сезон

Бесстыжие 9 сезон

Все сериалы

все сериалы на PB.wtf

RePack

FAR CRY 5
Ребята, катастрофически не хватает 1900р. для оплаты серверов за Октябрь (всвязи с блокировками трафик упал в 3 раза), 1-2р., выручайте.
  

Лимузин цвета белой ночи (Янис Стрейч) [1981 г., Трагикомедия, DVDRip-AVC, Дубляж] от ExKinoRay pb.wtf

Лимузин цвета белой ночи через торрент pb.wtf

Размер: 1.76 GB | Добавлен: 2 года 5 мес. назад | Торрент скачан:17 раз
Скачать  

09-07-2017 18:49 Лимузин цвета белой ночи Скачать торрент  

Лимузин цвета белой ночи
Год выпуска: 1981
Страна: СССР (Латвия)
Жанр: Трагикомедия
Продолжительность: 01:23:23
Перевод: Дубляж

Режиссер: Янис Стрейч

Премьера в мире: 13 апреля 1981

rating

В ролях: Эвалдс Валтерс, Лилита Берзиня, Олга Дреге, Улдис Думпис, Байба Индриксоне, Болеслав Руж, Лига Лиепиня, Ромуальд Анцанс, Гундарс Аболиньш, Диана Занде

Описание: Восьмидесятилетняя тетушка Мирта, одиноко живущая в деревне, выигрывает по лотерейному билету «Жигули». Все многочисленные родственники, о которых она раньше и не подозревала, разом нагрянули в деревню и стали бесцеремонно размышлать о том, кто должен по праву унаследовать машину… Но Мирта принимает неожиданное для них решение — свой лимузин цвета белой ночи она дарит своему верному поклоннику…

Качество: DVDRip-AVC
Формат: MKV
Видео кодек: MPEG4
Аудио кодек: AC3
Видео: MPEG-4, 2500 Кбит/с, 720x442@1024x442, 25 кадров/сек
Аудио#1: Русский (AC3, 2 ch, 192 Кбит/с)
Аудио#2: Латышский (AC3, 2 ch, 320 Кбит/с)

Релиз от:




raw [info]: 720x442p 64:45 @ 25/1 fps (cfr)
x264 [info]: using SAR=64/45
x264 [info]: using cpu capabilities: MMX2 SSE2Fast LZCNT
x264 [info]: profile High, level 4.1
x264 [info]: frame I:664 Avg QP:17.24 size: 59921
x264 [info]: frame P:28853 Avg QP:19.63 size: 24215
x264 [info]: frame B:95564 Avg QP:21.36 size: 8634
x264 [info]: consecutive B-frames: 2.9% 4.3% 10.5% 15.1% 10.3% 50.6% 3.3% 1.1% 0.7% 0.3% 0.6% 0.2% 0.0% 0.0% 0.0% 0.0% 0.0%
-----
бщее
Уникальный идентификатор : 193968010368764528046827319759033217473 (0x91ECE143E50EAA6FBA6AD813BACE31C1)
Полное имя : E:\Limuzin.1981.DVDRip-AVC.ExKinoRay.mkv
Формат : Matroska
Версия формата : Version 2
Размер файла : 1,76 Гбайт
Продолжительность : 1 ч. 23 м.
Общий поток : 3014 Кбит/сек
Дата кодирования : UTC 2017-07-09 16:11:18
Программа кодирования : mkvmerge v7.8.0 ('River Man') 32bit built on Apr 3 2015 12:11:22
Библиотека кодирования : libebml v1.3.1 + libmatroska v1.4.2

Видео
Идентификатор : 1
Формат : AVC
Формат/Информация : Advanced Video Codec
Профиль формата : High@L4.1
Параметр CABAC формата : Да
Параметр ReFrames формата : 14 кадров
Идентификатор кодека : V_MPEG4/ISO/AVC
Продолжительность : 1 ч. 23 м.
Битрейт : 2500 Кбит/сек
Ширина : 720 пикселей
Высота : 442 пикселя
Соотношение сторон : 2,35:1
Режим частоты кадров : Постоянный
Частота кадров : 25,000 кадров/сек
Цветовое пространство : YUV
Субдискретизация насыщенности : 4:2:0
Битовая глубина : 8 бит
Тип развёртки : Прогрессивная
Бит/(Пиксели*Кадры) : 0.314
Размер потока : 1,42 Гбайт (81%)
Библиотека кодирования : x264 core 148 r2638 7599210
Настройки программы : cabac=1 / ref=14 / deblock=1:-2:-2 / analyse=0x3:0x133 / me=umh / subme=10 / psy=1 / psy_rd=1.05:0.15 / mixed_ref=1 / me_range=32 / chroma_me=1 / trellis=2 / 8x8dct=1 / cqm=0 / deadzone=21,11 / fast_pskip=0 / chroma_qp_offset=-3 / threads=4 / lookahead_threads=1 / sliced_threads=0 / nr=0 / decimate=0 / interlaced=0 / bluray_compat=0 / constrained_intra=0 / bframes=16 / b_pyramid=2 / b_adapt=2 / b_bias=0 / direct=3 / weightb=1 / open_gop=0 / weightp=2 / keyint=250 / keyint_min=25 / scenecut=40 / intra_refresh=0 / rc=2pass / mbtree=0 / bitrate=2500 / ratetol=1.0 / qcomp=0.60 / qpmin=0 / qpmax=69 / qpstep=4 / cplxblur=20.0 / qblur=0.5 / ip_ratio=1.40 / pb_ratio=1.30 / aq=1:1.00
Язык : English
Default : Да
Forced : Нет
Цветовой диапазон : Limited
Основные цвета : BT.601 NTSC
Характеристики трансфера : BT.601
Коэффициенты матрицы : BT.601

Аудио #1
Идентификатор : 2
Формат : AC-3
Формат/Информация : Audio Coding 3
Расширение режима : CM (complete main)
Параметр Endianness формата : Big
Идентификатор кодека : A_AC3
Продолжительность : 1 ч. 23 м.
Вид битрейта : Постоянный
Битрейт : 192 Кбит/сек
Каналы : 2 канала
Расположение каналов : Front: L R
Частота : 48,0 КГц
Частота кадров : 31,250 кадров/сек (1536 spf)
Метод сжатия : С потерями
Размер потока : 115 Мбайт (6%)
Язык : Russian
Default : Да
Forced : Нет

Аудио #2
Идентификатор : 3
Формат : AC-3
Формат/Информация : Audio Coding 3
Расширение режима : CM (complete main)
Параметр Endianness формата : Big
Идентификатор кодека : A_AC3
Продолжительность : 1 ч. 23 м.
Вид битрейта : Постоянный
Битрейт : 320 Кбит/сек
Каналы : 2 канала
Расположение каналов : Front: L R
Частота : 48,0 КГц
Частота кадров : 31,250 кадров/сек (1536 spf)
Метод сжатия : С потерями
Размер потока : 191 Мбайт (11%)
Язык : Latvian
Default : Нет
Forced : Нет

pb.wtf



Скачать Лимузин цвета белой ночи через торрент http://s018.radikal.ru/i507/1707/0b/7380af0f31d6.jpg Скачать фильм Лимузин цвета белой ночи через торрент бесплантно в хорошем качестве Описание: Восьмидесятилетняя тетушка Мирта, одиноко живущая в деревне, выигрывает по лотерейному билету «Жигули». Все многочисленные ... 10 10 1
Info! Золотая раздача, скачанное не засчитывается.
Торрент: Зарегистрирован [2017-07-09 18:49] · скачан: 17 раз
Статус: √ проверено
Размер: 1.76 GB
Как cкачать? Как скачать Лимузин цвета белой ночи через торрент | qTorrent

28-11-2019 20:33  

Отключить всю рекламу на сайте

09-07-2017 18:52 Лимузин цвета белой ночи Скачать торрент  

Топик был перенесен из форума Оформление раздач (Кино, Видео и ТВ) в форум Кино СССР


schultzpb.wtf



    Дорогой пользователь! Огромная просьба, поблагодарите релизера, оцените раздачу и оставьте свои комментарий, если Вы скачали Лимузин цвета белой ночи через торрент бесплатно! Внесите свою лепту в развитие PiratBit!
    Комментировать посты могут только пользователи прошедшие не сложную регистрацию
    Показать сообщения:    

    Лимузин цвета белой ночи через торрент
    Скачать бесплатно Лимузин цвета белой ночи
    Лимузин цвета белой ночи скачать торрент
    Лимузин цвета белой ночи смотреть онлайн
    Cкачать фильм Лимузин цвета белой ночи бесплатно
    Лимузин цвета белой ночи скачать торрент в хорошем качестве
    Лимузин цвета белой ночи смотреть онлайн бесплатно в хорошем качестве


    Вы не можете начинать темы
    Вы не можете отвечать на сообщения
    Вы не можете редактировать свои сообщения
    Вы не можете удалять свои сообщения
    Вы не можете голосовать в опросах
    Вы не можете прикреплять файлы к сообщениям
    Вы можете скачивать файлы