2 сезон

iTunes

MVO

1

2 сезон

iTunes

1 сезон

1 сезон

RePack

30

Ultimate

ВАЖНО

ИГРА 18+

pack

RePack

MK11
pack

Легкие деньги

RePack

jed

RePack

fifa19

RePack

RDR2

RePack

NEED FOR SPEED™ PAYBACK

4 сезон

9 сезон

Бесстыжие 9 сезон

Все сериалы

все сериалы на PB.wtf

RePack

FAR CRY 5

Anonymous, добрый вечер, мы не успеваем собрать деньги на оплату серверов за декабрь и январь, помогите нам пожалуйста в это трудное время. В качестве благодарности мы отключим Вам всю рекламу на сайте (укажите свой ник в строку Ваше имя)!

×
  
Magnet ссылка

Влюбленные и медведь / Two Lovers and a Bear (Ким Нгуйен) [2016, драма, мелодрама, WEB-DLRip-AVC] Профессиональный многоголосый [Лицензия / iTunes] pb.wtf

Влюбленные и медведь через торрент pb.wtf

Размер: 1.2 GB | Добавлен: 3 года 6 мес. назад | Торрент скачан:90 раз
Скачать  

10-07-2017 06:20 Влюбленные и медведь Скачать торрент  

Влюбленные и медведь / Two Lovers and a Bear


Год выпуска: 2016
Страна: Канада
Жанр: драма, мелодрама
Продолжительность: 01:35:16
Перевод: Профессиональный многоголосый [Лицензия / iTunes]
Режиссер: Ким Нгуйен
В ролях:

Дэйн ДеХаан (Roman), Татьяна Маслани (Lucy), Гордон Пинсент (Bear's Voice), Джон Ралстон (Lucy's Father), Джоэль Гань (American Hunter), Эш Кэтервуд (Mouthwash buyer), Джеффри Р. Смит (Taxi Client), Joseph Nakogee (Peter (store cashier)), Чип Чуипка (Barman), Jennifer Soucie (Johanna), Phoenix Wilson (Six year old kid), Johnny Issaluk (Charlie)
Описание:
Действие происходит в небольшом городке, недалеко от Северного полюса, где дороги ведут в никуда. Роман и Люси - две горящие души, которые вместе совершают скачок в жизни и внутреннем мире.
Мировая премьера: 18 мая 2016

Качество: WEB-DLRip-AVC by
Формат: MKV
Видео кодек: AVC
Аудио кодек: AC3
Видео: AVC, 1024x430 (2.40:1), 1417 kbps, 23,976 fps, 0,134 bpp
Аудио: русский / AC3 / 5.1 / 48 kHz / 384 kbps / ||
Навигация по главам: есть

General
Unique ID : 184168766533436822475871835448461206917 (0x8A8D9D3E1897D0638A0E52E9C86BA585)
Complete name : E:\VlublEnnie.i.Medved.2O17.WEB-DLRip-AVC.by.Generalfilm.mkv
Format : Matroska
Format version : Version 4 / Version 2
File size : 1.20 GiB
Duration : 1 h 35 min
Overall bit rate : 1 801 kb/s
Movie name : VlublEnnie.i.Medved.2O17.WEB-DLRip-AVC.by.Generalfilm.mkv
Encoded date : UTC 2017-07-10 05:52:34
Writing application : mkvmerge v6.8.0 ('Theme for Great Cities') 64bit built on Mar 2 2014 21:34:26
Writing library : libebml v1.3.0 + libmatroska v1.4.1

Video
ID : 1
Format : AVC
Format/Info : Advanced Video Codec
Format profile : High@L4.1
Format settings, CABAC : Yes
Format settings, ReFrames : 12 frames
Codec ID : V_MPEG4/ISO/AVC
Duration : 1 h 35 min
Bit rate : 1 417 kb/s
Width : 1 024 pixels
Height : 430 pixels
Display aspect ratio : 2.40:1
Frame rate mode : Constant
Frame rate : 23.976 (24000/1001) FPS
Color space : YUV
Chroma subsampling : 4:2:0
Bit depth : 8 bits
Scan type : Progressive
Bits/(Pixel*Frame) : 0.134
Stream size : 941 MiB (77%)
Writing library : x264 core 148 r2638 7599210
Encoding settings : cabac=1 / ref=12 / deblock=1:-2:-1 / analyse=0x3:0x113 / me=umh / subme=11 / psy=1 / psy_rd=1.00:0.14 / mixed_ref=1 / me_range=32 / chroma_me=1 / trellis=2 / 8x8dct=1 / cqm=0 / deadzone=21,11 / fast_pskip=0 / chroma_qp_offset=-5 / threads=6 / lookahead_threads=1 / sliced_threads=0 / nr=0 / decimate=0 / interlaced=0 / bluray_compat=0 / constrained_intra=0 / bframes=12 / b_pyramid=2 / b_adapt=2 / b_bias=0 / direct=1 / weightb=0 / open_gop=0 / weightp=2 / keyint=240 / keyint_min=23 / scenecut=40 / intra_refresh=0 / rc_lookahead=40 / rc=2pass / mbtree=1 / bitrate=1417 / ratetol=1.0 / qcomp=0.70 / qpmin=0 / qpmax=69 / qpstep=4 / cplxblur=20.0 / qblur=0.5 / vbv_maxrate=50000 / vbv_bufsize=65500 / nal_hrd=none / filler=0 / ip_ratio=1.40 / aq=1:1.00
Default : Yes
Forced : No

Audio
ID : 2
Format : AC-3
Format/Info : Audio Coding 3
Mode extension : CM (complete main)
Format settings, Endianness : Big
Codec ID : A_AC3
Duration : 1 h 35 min
Bit rate mode : Constant
Bit rate : 384 kb/s
Channel(s) : 6 channels
Channel positions : Front: L C R, Side: L R, LFE
Sampling rate : 48.0 kHz
Frame rate : 31.250 FPS (1536 spf)
Compression mode : Lossy
Stream size : 262 MiB (21%)
Language : Russian
Default : Yes
Forced : No

Menu
00:00:00.000 : en:1
00:03:46.184 : en:2
00:08:14.493 : en:3
00:12:28.830 : en:4
00:17:56.032 : en:5
00:22:53.954 : en:6
00:27:40.448 : en:7
00:31:37.017 : en:8
00:38:37.729 : en:9
00:44:12.397 : en:10
00:52:28.976 : en:11
00:56:29.132 : en:12
01:03:55.912 : en:13
01:10:33.184 : en:14
01:17:38.275 : en:15
01:23:33.380 : en:16
pb.wtf



Скачать Влюбленные и медведь через торрент http://i92.fastpic.ru/big/2017/0710/83/ed8c25b4f75c62200abf385fcdcccd83.jpg Скачать фильм Влюбленные и медведь через торрент бесплантно в хорошем качестве Описание: Действие происходит в небольшом городке, недалеко от Северного полюса, где дороги ведут в никуда. Роман и Люси - две горящие ... 8 10 2
Info! Золотая раздача, скачанное не засчитывается.
Торрент: Зарегистрирован [2017-07-10 06:20] · скачан: 90 раз
Статус: √ проверено
Размер: 1.2 GB
Как cкачать? Как скачать Влюбленные и медведь через торрент | UTorrent

% Раздел Тема Автор DL S | L
Фильмы 2016 [DVDrip, WEB-DLRip, HDrip] (DUB, MVO) [ 1.46 GB ] Влюбленные и медведь / Two Lovers and a Bear [2016 WEB-DLRip] MVO bober100 Скачать
1 | 0

28-11-2019 20:33  

Отключить всю рекламу на сайте

    Дорогой пользователь! Огромная просьба, поблагодарите релизера, оцените раздачу и оставьте свои комментарий, если Вы скачали Влюбленные и медведь через торрент бесплатно! Внесите свою лепту в развитие PiratBit!
    Комментировать посты могут только пользователи прошедшие не сложную регистрацию
    Показать сообщения:    

    Влюбленные и медведь через торрент
    Скачать бесплатно Влюбленные и медведь
    Влюбленные и медведь скачать торрент
    Влюбленные и медведь смотреть онлайн
    Cкачать фильм Влюбленные и медведь бесплатно
    Влюбленные и медведь скачать торрент в хорошем качестве
    Влюбленные и медведь смотреть онлайн бесплатно в хорошем качестве


    Вы не можете начинать темы
    Вы не можете отвечать на сообщения
    Вы не можете редактировать свои сообщения
    Вы не можете удалять свои сообщения
    Вы не можете голосовать в опросах
    Вы не можете прикреплять файлы к сообщениям
    Вы можете скачивать файлы