2 сезон

iTunes

1 сезон

1

iTunes

iTunes

iTunes

1 сезон

RePack

30

ИГРА 18+

pack

ВАЖНО

!!Акция!!

Alien_RageХит недели

RePack

MK11
pack

Забери бонус

RePack

jed

!!Акция!!

Alien_Rage

RePack

fifa19

RePack

Assassins Creed: Odyssey

RePack

NEED FOR SPEED™ PAYBACK

4 сезон

9 сезон

Бесстыжие 9 сезон

Все сериалы

все сериалы на PB.wtf

RePack

FAR CRY 5
  

Что скрывает ложь / What Lies Beneath (Роберт Земекис) [2000, ужасы, фэнтези, триллер, драма, детектив, BDRip 720p by msltel] DUB, 2 x AVO pb.wtf

Что скрывает ложь через торрент pb.wtf

Размер: 5.23 GB | Добавлен: 3 года 3 мес. назад | Торрент скачан:63 раза
Скачать  

10-07-2017 09:53 Что скрывает ложь Скачать торрент  

Название: Что скрывает ложь
Оригинальное название: What Lies Beneath
Год выпуска: 2000
Страна: США
Жанр: ужасы, фэнтези, триллер, драма, детектив
Продолжительность: 02:09:59
Перевод: дублированный, авторский

Режиссер: Роберт Земекис
В ролях: Мишель Пфайффер, Харрисон Форд, Дайана Скаруид, Венди Крюсон, Джеймс Римар, Миранда Отто, Джо Мортон, Эмбер Валлетта, Кэтрин Таун, Виктория Бидвелл

Описание: Учёный и преподаватель Норман Спенсер с женой Клэр остаются в одиночестве после того, как их дочь Кейтлин покидает дом и отправляется в колледж. Вскоре Клэр начинает казаться, что рассудок её подводит, проливные дожди и звуки ссоры между новыми соседями настраивают её на тревожный лад, а увидев, как сосед кладёт в багажник машины свёрнутый ковёр, она немедленно начинает думать о возможном преступлении. После этого Клэр начинают всюду мерещиться убийства, а однажды она видит самое настоящее привидение — юную Мэдисон Фрэнк, учившуюся в классе Нормана и пропавшую год назад. Норман считает видения жены последствиями автомобильной аварии, в которую она когда-то попала, но сама Клэр относится к ним куда серьёзнее и, в конце концов, решает, что единственный способ вновь обрести покой — войти в контакт с духом Мэдисон. Когда Клэр удаётся наладить с ней связь и понять, почему девушка так настойчиво пыталась до неё «достучаться», вся жизнь супругов переворачивается верх дном...



Качество: BDRip 720p
Формат: MKV
Видео: MPEG-4 AVC, 4093 Кбит/с, 1280х530, 23.976 кадр/с
Аудио 1: русский, AC3, 448 kbps, 6 ch [дублированный]
Аудио 2: русский, AC3, 384 kbps, 6 ch [авторский, Юрий Живов]
Аудио 3: русский, AC3, 384 kbps, 6 ch [авторский, Алексей Медведев]
Аудио 4: английский, AC3, 448 kbps, 6 ch, 48 kHz [оригинал]
Субтитры 1: русские
Субтитры 2: английские
Имеются неименованные главы/чаптеры.
Общее
Уникальный идентификатор : 232001605001459783046127341878466759333 (0xAE89E24225991289B7396FAF5962CAA5)
Полное имя : D:\Video\Что скрывает ложь.2000.BDRip.720p by msltel.mkv
Формат : Matroska
Версия формата : Version 4 / Version 2
Размер файла : 5,23 Гбайт
Продолжительность : 2 ч. 10 м.
Общий поток : 5758 Кбит/сек
Название фильма : Rip by msltel
Дата кодирования : UTC 2017-07-09 02:22:46
Программа кодирования : mkvmerge v8.2.0 ('World of Adventure') 64bit
Библиотека кодирования : libebml v1.3.1 + libmatroska v1.4.2

Видео
Идентификатор : 1
Формат : AVC
Формат/Информация : Advanced Video Codec
Профиль формата : High@L4.1
Параметр CABAC формата : Да
Параметр ReFrames формата : 9 кадров
Идентификатор кодека : V_MPEG4/ISO/AVC
Продолжительность : 2 ч. 9 м.
Битрейт : 4093 Кбит/сек
Ширина : 1280 пикселей
Высота : 530 пикселей
Соотношение сторон : 2,40:1
Режим частоты кадров : Постоянный
Частота кадров : 23,976 (24000/1001) кадра/сек
Цветовое пространство : YUV
Субдискретизация насыщенности : 4:2:0
Битовая глубина : 8 бит
Тип развёртки : Прогрессивная
Бит/(Пиксели*Кадры) : 0.252
Размер потока : 3,72 Гбайт (71%)
Библиотека кодирования : x264 core 146 r2538 121396c
Настройки программы : cabac=1 / ref=9 / deblock=1:-3:-2 / analyse=0x3:0x113 / me=umh / subme=11 / psy=1 / psy_rd=1.00:0.15 / mixed_ref=1 / me_range=32 / chroma_me=1 / trellis=2 / 8x8dct=1 / cqm=0 / deadzone=21,11 / fast_pskip=0 / chroma_qp_offset=-3 / threads=6 / lookahead_threads=1 / sliced_threads=0 / nr=0 / decimate=1 / interlaced=0 / bluray_compat=0 / constrained_intra=0 / bframes=9 / b_pyramid=2 / b_adapt=2 / b_bias=0 / direct=1 / weightb=1 / open_gop=0 / weightp=2 / keyint=230 / keyint_min=23 / scenecut=40 / intra_refresh=0 / rc_lookahead=40 / rc=crf / mbtree=0 / crf=17.9 / qcomp=0.60 / qpmin=0 / qpmax=69 / qpstep=4 / vbv_maxrate=62500 / vbv_bufsize=78125 / crf_max=0.0 / nal_hrd=none / filler=0 / ip_ratio=1.40 / pb_ratio=1.30 / aq=1:1.00
Язык : English
Default : Да
Forced : Нет

Аудио #1
Идентификатор : 2
Формат : AC-3
Формат/Информация : Audio Coding 3
Параметр Endianness формата : Big
Идентификатор кодека : A_AC3
Продолжительность : 2 ч. 9 м.
Вид битрейта : Постоянный
Битрейт : 448 Кбит/сек
Каналы : 6 каналов
Расположение каналов : Front: L C R, Side: L R, LFE
Частота : 48,0 КГц
Частота кадров : 31,250 кадров/сек (1536 spf)
Битовая глубина : 16 бит
Метод сжатия : С потерями
Размер потока : 416 Мбайт (8%)
Заголовок : DUB
Язык : Russian
ServiceKind/String : Complete Main
Default : Да
Forced : Нет

Аудио #2
Идентификатор : 3
Формат : AC-3
Формат/Информация : Audio Coding 3
Параметр Endianness формата : Big
Идентификатор кодека : A_AC3
Продолжительность : 2 ч. 9 м.
Вид битрейта : Постоянный
Битрейт : 384 Кбит/сек
Каналы : 6 каналов
Расположение каналов : Front: L C R, Side: L R, LFE
Частота : 48,0 КГц
Частота кадров : 31,250 кадров/сек (1536 spf)
Битовая глубина : 16 бит
Метод сжатия : С потерями
Размер потока : 357 Мбайт (7%)
Заголовок : AVO (Юрий Живов)
Язык : Russian
ServiceKind/String : Complete Main
Default : Нет
Forced : Нет

Аудио #3
Идентификатор : 4
Формат : AC-3
Формат/Информация : Audio Coding 3
Параметр Endianness формата : Big
Идентификатор кодека : A_AC3
Продолжительность : 2 ч. 9 м.
Вид битрейта : Постоянный
Битрейт : 384 Кбит/сек
Каналы : 6 каналов
Расположение каналов : Front: L C R, Side: L R, LFE
Частота : 48,0 КГц
Частота кадров : 31,250 кадров/сек (1536 spf)
Битовая глубина : 16 бит
Метод сжатия : С потерями
Размер потока : 357 Мбайт (7%)
Заголовок : AVO (Алексей Медведев)
Язык : Russian
ServiceKind/String : Complete Main
Default : Нет
Forced : Нет

Аудио #4
Идентификатор : 5
Формат : AC-3
Формат/Информация : Audio Coding 3
Параметр Endianness формата : Big
Идентификатор кодека : A_AC3
Продолжительность : 2 ч. 10 м.
Вид битрейта : Постоянный
Битрейт : 448 Кбит/сек
Каналы : 6 каналов
Расположение каналов : Front: L C R, Side: L R, LFE
Частота : 48,0 КГц
Частота кадров : 31,250 кадров/сек (1536 spf)
Битовая глубина : 16 бит
Метод сжатия : С потерями
Размер потока : 417 Мбайт (8%)
Заголовок : original
Язык : English
ServiceKind/String : Complete Main
Default : Нет
Forced : Нет

Текст #1
Идентификатор : 6
Формат : UTF-8
Идентификатор кодека : S_TEXT/UTF8
Идентификатор кодека/Информация : UTF-8 Plain Text
Продолжительность : 1 ч. 56 м.
Битрейт : 62 бит/сек
ElementCount : 841
Размер потока : 53,8 Кбайт (0%)
Заголовок : русские
Язык : Russian
Default : Нет
Forced : Нет

Текст #2
Идентификатор : 7
Формат : UTF-8
Идентификатор кодека : S_TEXT/UTF8
Идентификатор кодека/Информация : UTF-8 Plain Text
Продолжительность : 1 ч. 56 м.
Битрейт : 32 бит/сек
ElementCount : 1057
Размер потока : 27,8 Кбайт (0%)
Заголовок : английские
Язык : English
Default : Нет
Forced : Нет

Меню
00:00:00.000 : :Chapter 01
00:16:12.958 : :Chapter 02
00:30:59.834 : :Chapter 03
00:43:50.625 : :Chapter 04
00:59:35.541 : :Chapter 05
01:16:48.582 : :Chapter 06
01:31:02.457 : :Chapter 07
01:51:19.667 : :Chapter 08
02:03:15.375 : :Chapter 09
02:09:58.750 : :Chapter 10
pb.wtf



Скачать Что скрывает ложь через торрент http://s018.radikal.ru/i507/1707/02/5b9298c4640c.jpg Скачать фильм Что скрывает ложь через торрент бесплантно в хорошем качестве Описание: Учёный и преподаватель Норман Спенсер с женой Клэр остаются в одиночестве после того, как их дочь Кейтлин покидает дом и ... 10 10 2
Info! Золотая раздача, скачанное не засчитывается.
Торрент: Зарегистрирован [2017-07-10 09:53] · скачан: 63 раз
Статус: √ проверено
Размер: 5.23 GB
Как cкачать? Как скачать Что скрывает ложь через торрент | qTorrent

% Раздел Тема Автор DL S | L
Фильмы [HD 720p, 1080p] (Хороший звук DUB, MVO) [ 14.23 GB ] Что скрывает ложь / What Lies Beneath [2000 BDRip 1080p by msltel] DUB 2 x AVO msltel Скачать
1 | 0

28-11-2019 20:33  

Отключить всю рекламу на сайте

    Дорогой пользователь! Огромная просьба, поблагодарите релизера, оцените раздачу и оставьте свои комментарий, если Вы скачали Что скрывает ложь через торрент бесплатно! Внесите свою лепту в развитие PiratBit!
    Комментировать посты могут только пользователи прошедшие не сложную регистрацию
    Показать сообщения:    

    Что скрывает ложь через торрент
    Скачать бесплатно Что скрывает ложь
    Что скрывает ложь скачать торрент
    Что скрывает ложь смотреть онлайн
    Cкачать фильм Что скрывает ложь бесплатно
    Что скрывает ложь скачать торрент в хорошем качестве
    Что скрывает ложь смотреть онлайн бесплатно в хорошем качестве


    Вы не можете начинать темы
    Вы не можете отвечать на сообщения
    Вы не можете редактировать свои сообщения
    Вы не можете удалять свои сообщения
    Вы не можете голосовать в опросах
    Вы не можете прикреплять файлы к сообщениям
    Вы можете скачивать файлы