Ссылка на приватное зеркало нашего сайта всего за 1$. Внимание количество ограничено!!!

2 сезон

iTunes

1 сезон

1

iTunes

iTunes

iTunes

1 сезон

RePack

30

ИГРА 18+

pack

ВАЖНО

!!Акция!!

Alien_RageХит недели

RePack

MK11
pack

Забери бонус

RePack

jed

!!Акция!!

Alien_Rage

RePack

fifa19

RePack

Assassins Creed: Odyssey

RePack

NEED FOR SPEED™ PAYBACK

4 сезон

9 сезон

Бесстыжие 9 сезон

Все сериалы

все сериалы на PB.wtf

RePack

FAR CRY 5
  

Убийство / The Killing (Стэнли Кубрик) [1956, фильм-нуар, триллер, драма, BDRip 720p от еnvy / NNNB] DVO, AVO pb.wtf

Убийство через торрент pb.wtf

Раздают: 1 [ 0 KB/s ]
Размер: 5.76 GB | Добавлен: 3 года 3 мес. назад | Торрент скачан:17 раз
Скачать  

10-07-2017 15:40 Убийство Скачать торрент  

Информация о фильме

Русское название: Убийство
Оригинальное название: The Killing
Год выхода: 1956
Жанр: фильм-нуар, триллер, драма
Режиссер: Стэнли Кубрик
Выпущено: США
Продолжительность: 01:24:20
Перевод: Профессиональный (двухголосый, закадровый), Авторский (одноголосый, закадровый)
В ролях: Стерлинг Хейден, Колин Грэй, Винс Эдвардс, Джей С. Флиппен, Тед де Корсия, Мари Уиндсор, Элиша Кук мл., Джо Сойер, Джеймс Эдвардс, Тимоти Кэри
Описание:

Бывший заключенный Джонни Клэй планирует ограбление ипподрома, надеясь сорвать куш в 2 миллиона. Для осуществления тщательного проработанного плана он привлекает еще четверых людей — кассира, продажного полицейского, бывшего алкоголика и бармена.
Во время ограбления план рушится, потому что один из сообщников решил внести в него свои изменения.


Файл

Качество: BDRip 720p (исходник Blu-Ray Disc Remux 1080p)
Формат: MKV
Видео: 1202x720, 9196 Кбит/сек, 23,976 кадр/сек, AVC, x264, High@L4.1, 5:3, 0.443 Бит/[Пиксели*Кадры]
Аудио 1: AC-3, 192 Кбит/сек, 2 канала(ов), 48,0 КГц - Двухголосый закадровый / Русский
Аудио 2: AC-3, 192 Кбит/сек, 1 канала(ов), 48,0 КГц - Одноголосый закадровый, С.Визгунов / Русский
Аудио 3: AC-3, 192 Кбит/сек, 1 канала(ов), 48,0 КГц - Оригинал / Англйиский
Субтитры: Русские | Полные, Английские | Полные
Форсированные субтитры: Нет
Чаптеры (Главы): Есть






Автор Рипа: Группа:


скриншот   скриншот   скриншот  
Format : Matroska
Format version : Version 2
File size : 5.76 GiB
Duration : 1 h 24 min
Overall bit rate : 9 770 kb/s
Movie name : The Killing.(1956).BDRip.720p.[envy]
Encoded date : UTC 2017-07-10 15:10:00
Writing application : mkvmerge v5.8.0 ('No Sleep / Pillow') built on Sep 2 2012 15:37:04
Writing library : libebml v1.2.3 + libmatroska v1.3.0

Video
ID : 1
Format : AVC
Format/Info : Advanced Video Codec
Format profile : High@L4.1
Format settings, CABAC : Yes
Format settings, ReFrames : 9 frames
Codec ID : V_MPEG4/ISO/AVC
Duration : 1 h 24 min
Bit rate : 9 196 kb/s
Width : 1 202 pixels
Height : 720 pixels
Display aspect ratio : 5:3
Frame rate mode : Constant
Frame rate : 23.976 (24000/1001) FPS
Color space : YUV
Chroma subsampling : 4:2:0
Bit depth : 8 bits
Scan type : Progressive
Bits/(Pixel*Frame) : 0.443
Stream size : 5.30 GiB (92%)
Title : The Killing.(1956).BDRip.720p.[envy]
Writing library : x264 core 152 r2851 ba24899
Encoding settings : cabac=1 / ref=9 / deblock=1:-3:-3 / analyse=0x3:0x133 / me=umh / subme=11 / psy=1 / psy_rd=1.00:0.00 / mixed_ref=1 / me_range=32 / chroma_me=1 / trellis=2 / 8x8dct=1 / cqm=0 / deadzone=21,11 / fast_pskip=0 / chroma_qp_offset=-2 / threads=12 / lookahead_threads=1 / sliced_threads=0 / nr=0 / decimate=1 / interlaced=0 / bluray_compat=0 / constrained_intra=0 / bframes=5 / b_pyramid=2 / b_adapt=2 / b_bias=0 / direct=3 / weightb=1 / open_gop=0 / weightp=2 / keyint=240 / keyint_min=23 / scenecut=40 / intra_refresh=0 / rc=2pass / mbtree=0 / bitrate=9196 / ratetol=2.0 / qcomp=0.60 / qpmin=0 / qpmax=69 / qpstep=4 / cplxblur=20.0 / qblur=0.5 / ip_ratio=1.40 / pb_ratio=1.30 / aq=1:0.70
Language : English
Default : Yes
Forced : No

Audio #1
ID : 2
Format : AC-3
Format/Info : Audio Coding 3
Format settings, Endianness : Big
Codec ID : A_AC3
Duration : 1 h 24 min
Bit rate mode : Constant
Bit rate : 192 kb/s
Channel(s) : 2 channels
Channel positions : Front: L R
Sampling rate : 48.0 kHz
Frame rate : 31.250 FPS (1536 spf)
Bit depth : 16 bits
Compression mode : Lossy
Stream size : 116 MiB (2%)
Title : DVO
Language : Russian
Service kind : Complete Main
Default : Yes
Forced : No

Audio #2
ID : 3
Format : AC-3
Format/Info : Audio Coding 3
Format settings, Endianness : Big
Codec ID : A_AC3
Duration : 1 h 24 min
Bit rate mode : Constant
Bit rate : 192 kb/s
Channel(s) : 1 channel
Channel positions : Front: C
Sampling rate : 48.0 kHz
Frame rate : 31.250 FPS (1536 spf)
Bit depth : 16 bits
Compression mode : Lossy
Stream size : 116 MiB (2%)
Title : AVO Визгунов
Language : Russian
Service kind : Complete Main
Default : No
Forced : No

Audio #3
ID : 4
Format : AC-3
Format/Info : Audio Coding 3
Format settings, Endianness : Big
Codec ID : A_AC3
Duration : 1 h 24 min
Bit rate mode : Constant
Bit rate : 192 kb/s
Channel(s) : 1 channel
Channel positions : Front: C
Sampling rate : 48.0 kHz
Frame rate : 31.250 FPS (1536 spf)
Bit depth : 16 bits
Compression mode : Lossy
Stream size : 116 MiB (2%)
Title : Eng
Language : English
Service kind : Complete Main
Default : No
Forced : No

Text #1
ID : 5
Format : UTF-8
Codec ID : S_TEXT/UTF8
Codec ID/Info : UTF-8 Plain Text
Title : Rus full
Language : Russian
Default : No
Forced : No

Text #2
ID : 6
Format : UTF-8
Codec ID : S_TEXT/UTF8
Codec ID/Info : UTF-8 Plain Text
Title : Eng full
Language : English
Default : No
Forced : No

Menu
00:00:00.000 : :Chapter 01
00:05:00.341 : :Chapter 02
00:07:04.924 : :Chapter 03
00:10:37.845 : :Chapter 04
00:15:41.982 : :Chapter 05
00:19:22.327 : :Chapter 06
00:22:11.621 : :Chapter 07
00:26:18.534 : :Chapter 08
00:29:25.180 : :Chapter 09
00:32:52.720 : :Chapter 10
00:35:28.208 : :Chapter 11
00:37:21.613 : :Chapter 12
00:41:03.460 : :Chapter 13
00:43:30.064 : :Chapter 14
00:45:33.147 : :Chapter 15
00:51:01.558 : :Chapter 16
00:53:12.605 : :Chapter 17
00:57:04.087 : :Chapter 18
01:02:40.715 : :Chapter 19
01:10:20.049 : :Chapter 20
01:13:53.053 : :Chapter 21
01:16:32.254 : :Chapter 22
01:18:12.896 : :Chapter 23

pb.wtf



Скачать Убийство через торрент http://img11.lostpic.net/2017/07/10/cd4292d013ae7f32b9e5bc9ef68f7b77.png Скачать фильм Убийство через торрент бесплантно в хорошем качестве Описание:Бывший заключенный Джонни Клэй планирует ограбление ипподрома, надеясь сорвать куш в 2 миллиона. Для осуществления тщательного ... 10 10 1
Info! Золотая раздача, скачанное не засчитывается.
Торрент: Зарегистрирован [2017-07-10 15:40] · скачан: 17 раз
Статус: √ проверено
Размер: 5.76 GB
Как cкачать? Как скачать Убийство через торрент | qTorrent



Последний раз редактировалось: еnvy (2017-07-10 15:53), всего редактировалось 2 раз(а)

28-11-2019 20:33  

Отключить всю рекламу на сайте

    Дорогой пользователь! Огромная просьба, поблагодарите релизера, оцените раздачу и оставьте свои комментарий, если Вы скачали Убийство через торрент бесплатно! Внесите свою лепту в развитие PiratBit!
    Комментировать посты могут только пользователи прошедшие не сложную регистрацию
    Показать сообщения:    

    Убийство через торрент
    Скачать бесплатно Убийство
    Убийство скачать торрент
    Убийство смотреть онлайн
    Cкачать фильм Убийство бесплатно
    Убийство скачать торрент в хорошем качестве
    Убийство смотреть онлайн бесплатно в хорошем качестве


    Вы не можете начинать темы
    Вы не можете отвечать на сообщения
    Вы не можете редактировать свои сообщения
    Вы не можете удалять свои сообщения
    Вы не можете голосовать в опросах
    Вы не можете прикреплять файлы к сообщениям
    Вы можете скачивать файлы