Всегда рабочее зеркало без VPN и Proxy просто перед .vidak.icu напиши любое слово или цифру, Пример http://wv9l.vidak.icu

MVO

2 сезон

1 сезон

1

1 сезон

iTunes

2 сезон

13

1 сезон

Deluxe

pack

Рекомендуем

Пиратка

30

ВАЖНО

RePack

MK11

RePack

jed

RePack

fifa19

RePack

RDR2

RePack

NEED FOR SPEED™ PAYBACK

Кинопоиск HD

6 сезон

 Острые козырьки 6 сезон

Все сериалы

все сериалы на PB.wtf

RePack

FAR CRY 5

Anonymous, нам критически не хватает 5601 руб. на оплату серверов и переферии за Апрель, помоги нам пожалуйста, вся надежда только на тебя. В благодарность мы отключим тебе всю рекламу на сайте!

×
  
Magnet ссылка

Прочь / Get Out (Джордан Пил / Jordan Peele) [2017, ужасы, детектив, BDRip-AVC от sokol_ok] Dub [Лицензия] pb.wtf

Прочь через торрент pb.wtf

Размер: 1.46 GB | Добавлен: 4 года 5 мес. назад | Торрент скачан:915 раз
Смотреть онлайн Прочь | Скачать    Ребята, помогите собрать деньги на оплату серверов!!!

10-07-2017 16:49 Прочь Скачать торрент  

Прочь
Get Out

«Знакомство с родителями не всегда заканчивается свадьбой»


Страна: США
Жанр: ужасы, детектив

Год выпуска: 2017
Продолжительность: 01:44:05

Перевод: Профессиональный (полное дублирование) [Blu-Ray CEE]
Субтитры: русские (форсированные, полные)
Оригинальная аудиодорожка: нет

Режиссер: Джордан Пил / Jordan Peele

В ролях: Дэниэл Калуя, Эллисон Уильямс, Кэтрин Кинер, Брэдли Уитфорд, Калеб Лэндри Джонс, Маркус Хендерсон, Бетти Гэбриел, Лейкит Стэнфилд, Стивен Рут, Лил Релл, Эшли ЛеКонте Кэмпбелл, Джон Уилмот

Описание:
Знакомство с родителями подружки не предвещает молодому фотографу из Нью-Йорка ничего хорошего, ведь семья девушки принадлежит к элитному обществу и живет в уединенном загородном доме. Если бы он только знал истинную причину своего приглашения, то немедленно бросился бы прочь...



Релиз:

Автор рипа: stalkerok | Моя группа

Сэмпл

Качество видео: BDRip-AVC [Get Out (2017) 1080p BD-Remux HDCLUB]
Формат видео: MKV
Видео кодек: AVC
Аудио кодек: AC3
Видео: 1556 Кбит/сек, 1028x430 (2.40:1), 23,976 кадр/сек, AVC
Аудио: русский, 448 Кбит/сек, 48 КГц, 16 бит, 5.1, AC3
Навигация по главам: есть

x264 [info]: frame I:1207 Avg QP:13.74 size: 65256
x264 [info]: frame P:30131 Avg QP:16.86 size: 18408
x264 [info]: frame B:118399 Avg QP:18.84 size: 4906

Общее
Уникальный идентификатор : 251758462388875654533455523696784358039 (0xBD66EA88981E8B0196EF597E308EBA97)
Полное имя : M:\!!!!!!Rips2\Get Out (2017)\lic\Get.Out.2017.BDRip-AVC.RUS.stalkerok.new-team.mkv
Формат : Matroska
Версия формата : Version 4 / Version 2
Размер файла : 1,46 Гбайт
Продолжительность : 1 ч. 44 м.
Общий поток : 2005 Кбит/сек
Название фильма : Get Out (2017) (Rip by stalkerok)
Дата кодирования : UTC 2017-11-25 19:38:52
Программа кодирования : mkvmerge v8.6.1 ('Flying') 64bit
Библиотека кодирования : libebml v1.3.3 + libmatroska v1.4.4

Видео
Идентификатор : 1
Формат : AVC
Формат/Информация : Advanced Video Codec
Профиль формата : High@L4.1
Параметр CABAC формата : Да
Параметр ReFrames формата : 14 кадров
Идентификатор кодека : V_MPEG4/ISO/AVC
Продолжительность : 1 ч. 44 м.
Битрейт : 1556 Кбит/сек
Ширина : 1028 пикселей
Высота : 430 пикселей
Соотношение сторон : 2,40:1
Режим частоты кадров : Постоянный
Частота кадров : 23,976 (24000/1001) кадра/сек
Цветовое пространство : YUV
Субдискретизация насыщенности : 4:2:0
Битовая глубина : 8 бит
Тип развёртки : Прогрессивная
Бит/(Пиксели*Кадры) : 0.147
Размер потока : 1,13 Гбайт (78%)
Заголовок : Get Out (2017) (Rip by stalkerok)
Библиотека кодирования : x264 core 150 r2833kMod df79067
Настройки программы : cabac=1 / ref=14 / deblock=1:-3:-2 / analyse=0x3:0x133 / me=umh / subme=11 / psy=1 / fade_compensate=0.00 / psy_rd=1.00:0.00 / mixed_ref=1 / me_range=32 / chroma_me=1 / trellis=2 / 8x8dct=1 / cqm=0 / deadzone=21,11 / fast_pskip=0 / chroma_qp_offset=-2 / threads=12 / lookahead_threads=3 / sliced_threads=0 / nr=0 / decimate=0 / interlaced=0 / bluray_compat=0 / constrained_intra=0 / bframes=14 / b_pyramid=2 / b_adapt=2 / b_bias=0 / direct=3 / weightb=1 / open_gop=0 / weightp=2 / keyint=240 / keyint_min=23 / scenecut=40 / intra_refresh=0 / rc_lookahead=60 / rc=2pass / mbtree=0 / bitrate=1556 / ratetol=1.0 / qcomp=0.65 / qpmin=0 / qpmax=69 / qpstep=4 / cplxblur=20.0 / qblur=0.5 / vbv_maxrate=50000 / vbv_bufsize=62500 / nal_hrd=none / filler=0 / ip_ratio=1.40 / pb_ratio=1.30 / aq=3:0.85
Default : Да
Forced : Нет

Аудио
Идентификатор : 2
Формат : AC-3
Формат/Информация : Audio Coding 3
Расширение режима : CM (complete main)
Параметр Endianness формата : Big
Идентификатор кодека : A_AC3
Продолжительность : 1 ч. 44 м.
Вид битрейта : Постоянный
Битрейт : 448 Кбит/сек
Каналы : 6 каналов
Расположение каналов : Front: L C R, Side: L R, LFE
Частота : 48,0 КГц
Частота кадров : 31,250 кадров/сек (1536 spf)
Метод сжатия : С потерями
Размер потока : 334 Мбайт (22%)
Язык : Russian
Default : Да
Forced : Нет

Текст #1
Идентификатор : 3
Формат : UTF-8
Идентификатор кодека : S_TEXT/UTF8
Идентификатор кодека/Информация : UTF-8 Plain Text
Продолжительность : 1 ч. 40 м.
Битрейт : 0 бит/сек
Count of elements : 11
Размер потока : 435 байт (0%)
Заголовок : Forced
Язык : Russian
Default : Да
Forced : Нет

Текст #2
Идентификатор : 4
Формат : UTF-8
Идентификатор кодека : S_TEXT/UTF8
Идентификатор кодека/Информация : UTF-8 Plain Text
Продолжительность : 1 ч. 39 м.
Битрейт : 72 бит/сек
Count of elements : 856
Размер потока : 52,6 Кбайт (0%)
Заголовок : Перевод: Сергей Корягин
Язык : Russian
Default : Нет
Forced : Нет

Текст #3
Идентификатор : 5
Формат : UTF-8
Идентификатор кодека : S_TEXT/UTF8
Идентификатор кодека/Информация : UTF-8 Plain Text
Продолжительность : 1 ч. 43 м.
Битрейт : 59 бит/сек
Count of elements : 1187
Размер потока : 45,2 Кбайт (0%)
Заголовок : Blu-ray CEE
Язык : Russian
Default : Нет
Forced : Нет

Меню
00:00:00.000 : en:Chapter 1
00:04:52.834 : en:Chapter 2
00:10:13.528 : en:Chapter 3
00:14:02.258 : en:Chapter 4
00:19:07.479 : en:Chapter 5
00:21:49.432 : en:Chapter 6
00:26:07.356 : en:Chapter 7
00:30:51.015 : en:Chapter 8
00:37:19.487 : en:Chapter 9
00:42:16.867 : en:Chapter 10
00:48:03.170 : en:Chapter 11
00:54:13.583 : en:Chapter 12
00:57:38.288 : en:Chapter 13
01:03:33.809 : en:Chapter 14
01:10:48.911 : en:Chapter 15
01:15:36.363 : en:Chapter 16
01:22:02.542 : en:Chapter 17
01:26:13.417 : en:Chapter 18
01:32:24.412 : en:Chapter 19
01:40:22.390 : en:Chapter 20
скриншот   скриншот   скриншот   скриншот   скриншот   скриншот  
pb.wtf



Скачать Прочь через торрент http://i72.fastpic.ru/big/2015/0531/46/68ef8a2783b58e5344cc30bbd3f1b046.png Скачать, смотреть онлайн Прочь бесплантно в хорошем качестве Описание:Знакомство с родителями подружки не предвещает молодому фотографу из Нью-Йорка ничего хорошего, ведь семья девушки принадлежит к ... 9.2 10 23
Info! Золотая раздача, скачанное не засчитывается.
Торрент: Зарегистрирован [2017-11-27 12:03] · скачан: 915 раз
Статус: √ проверено
Размер: 1.46 GB
Как cкачать? Как скачать Прочь через торрент | UTorrent

% Раздел Тема Автор DL S | L
Фильмы с авторской озвучкой [ 1.47 GB ] Прочь / Get Out [2017 BDRip] [AVO] killermax2013 Скачать
1 | 0
Фильмы до 2000 г. [ 934 MB ] Укуренные 7 / Прочь из моей комнаты! / Get Out of My Room [1985 музыка DVDRip] VO killermax2013 Скачать
1 | 0
Фильмы (Blu-ray, BD-Remux, HDDVD) [ 39.65 GB ] Прочь / Get Out [2017 Blu-Ray CEE 1080p] Russian Mafia Скачать
1 | 0
Фильмы [HD 720p, 1080p] (Хороший звук DUB, MVO) [ 2.36 GB ] Прочь / Get Out [2017 BDRip 1080p HEVC ()] Мичман37 Скачать
1 | 0
Ultra HD (UHD: 2K, 4K, 8K) — видео сверхвысокой чёткости [ 12.57 GB ] Прочь / Get Out [2017 UHD BDRip 2160p] DUB + MVO [AlexFilm] + AVO [M. Яроцкий] sheker187 Скачать
2 | 0
R.G. Resident & PiratVoice - Фильмы, Видео [ 5.65 GB ] Прочь / Get Out [2017 BDRip 720p] - + MVO + AVO - R.G.Resident Хорват Скачать
1 | 0
Ultra HD (UHD: 2K, 4K, 8K) — видео сверхвысокой чёткости [ 61.91 GB ] Прочь / Get Out [2017 UHD BDRemux 2160p] MVO [AlexFilm] +2xAVO [Яроцкий Назаров] +DUB [] bober100 Скачать
2 | 0


Последний раз редактировалось: sokol_ok (2017-11-27 12:26), всего редактировалось 2 раз(а)

28-11-2019 20:33  

Отключить всю рекламу на сайте

10-07-2017 17:09 Прочь Скачать торрент  

Почему негров?pb.wtf



10-07-2017 17:11 Прочь Скачать торрент  

zra писал(а):

Почему негров?

Бухал в клубе с одним негром, нормальные парни))
Фильм по отзывам нормpb.wtf



12-07-2017 16:31 Прочь Скачать торрент  

кинчик зачетныйpb.wtf



25-08-2017 19:28 Прочь Скачать торрент  

sokol_ok писал(а):

zra писал(а):

Почему негров?

Бухал в клубе с одним негром, нормальные парни))
Фильм по отзывам норм

Не поверишь- работаю в Африке уже больше 5 лет, перетрахал кучу местных девок, ну вообще очень даже нормальные! pb.wtf



26-08-2017 11:06 Прочь Скачать торрент  

А я давал одному негру, вообще улет!pb.wtf



27-11-2017 12:03 Прочь Скачать торрент  

Замена на звук Blu-Ray CEEpb.wtf



27-11-2017 12:07 Прочь Скачать торрент  

Dimon0978 писал(а):

sokol_ok писал(а):

zra писал(а):

Почему негров?

Бухал в клубе с одним негром, нормальные парни))
Фильм по отзывам норм

Не поверишь- работаю в Африке уже больше 5 лет, перетрахал кучу местных девок, ну вообще очень даже нормальные!

Не поверилpb.wtf



27-11-2017 13:18 Прочь Скачать торрент  

прикольное кинцоpb.wtf



27-11-2017 15:19 Прочь Скачать торрент  

однозначно к просмотруpb.wtf



04-12-2017 16:15 Прочь Скачать торрент  

жесть! удивили! 10pb.wtf



05-12-2017 04:28 Прочь Скачать торрент  

Годный и спокойный кинчик.pb.wtf



    Дорогой пользователь! Огромная просьба, поблагодарите релизера, оцените раздачу и оставьте свои комментарий, если Вы скачали Прочь через торрент бесплатно!
    Комментировать посты могут только пользователи прошедшие не сложную регистрацию
    Показать сообщения:    

    Прочь через торрент
    Скачать бесплатно Прочь
    Прочь скачать торрент
    Прочь смотреть онлайн
    Cкачать фильм Прочь бесплатно
    Прочь скачать торрент в хорошем качестве
    Прочь смотреть онлайн бесплатно в хорошем качестве


    Вы не можете начинать темы
    Вы не можете отвечать на сообщения
    Вы не можете редактировать свои сообщения
    Вы не можете удалять свои сообщения
    Вы не можете голосовать в опросах
    Вы не можете прикреплять файлы к сообщениям
    Вы можете скачивать файлы