Ссылка на приватное зеркало нашего сайта всего за 1$. Внимание количество ограничено!!!

2 сезон

iTunes

1 сезон

1

2 сезон

2 сезон

iTunes

1 сезон

RePack

30

Ultimate

ВАЖНО

ИГРА 18+

pack

RePack

MK11
pack

Забери бонус

RePack

jed

!!Акция!!

Alien_Rage

RePack

fifa19

RePack

Assassins Creed: Odyssey

RePack

NEED FOR SPEED™ PAYBACK

4 сезон

9 сезон

Бесстыжие 9 сезон

Все сериалы

все сериалы на PB.wtf

RePack

FAR CRY 5
  

Золото / Gold (Стивен Гейган) [2016, триллер, драма, приключения, Blu-Ray Remux 1080p] 2x[AVO] + [MVO] + [DUB] pb.wtf

Золото через торрент pb.wtf

Размер: 33.28 GB | Добавлен: 3 года 4 мес. назад | Торрент скачан:44 раза
Скачать  

10-07-2017 18:54 Золото Скачать торрент  

Золото / Gold
Год выхода: 2016
Жанр: триллер, драма, приключения
Выпущено: США / Black Bear Pictures, Hwy61, Living Films
Продолжительность: 02:00:20
Перевод: - Авторский (одноголосый) (Вартан Дохалов)
Перевод: - Авторский (одноголосый) (Михаил Чадов)
Перевод: - Любительский (многоголосый) ("Paradox" & Omskbird records)
Перевод: - Дублированный (iTunes)
Субтитры: Английские

Режиссер: Стивен Гейган

В ролях: Мэттью МакКонахи, Эдгар Рамирес, Брайс Даллас Ховард, Кори Столл, Тоби Кеббелл, Билл Кэмп, Джошуа Харто, Тимоти С. Саймонс, Крэйг Т. Нельсон, Мэйкон Блэр

О фильме: Сюжет рассказывает историю Кенни Уэллса — современного золотоискателя, хваткого дельца и мечтателя, который отчаянно ждёт шанса переломить судьбу. Оставшись без особых вариантов, Уэллс находит себе такого же неудачливого напарника — геолога, чтобы реализовать грандиозный план: найти золото в неизведанных индонезийских джунглях.


Качество: Blu-Ray Remux (1080p)
Формат: MKV
Видео кодек: AVC
Аудио кодек: DTS, АС3
Видео: MPEG-4 AVC, 26.9 Мбит/с, 1920x1080, 23.976 кадр/с
Аудио № 1: Русский (48,0 КГц, DTS-HD MA, 6 ch, 3636 кбит/с) - Авторский (Вартан Дохалов)
Аудио № 2: Русский (48,0 КГц, DTS-HD MA, 6 ch, 3623 кбит/с) - Авторский (Михаил Чадов)
Аудио № 3: Русский (48,0 КГц, DTS, 6 ch, 1509 кбит/с) - Профессиональный многоголосый ("Paradox" & Omskbird records)
Аудио № 4: Русский (48,0 КГц,AC3, 6 ch, 384 кбит/с) - Дублированный (iTunes)
Аудио № 5: Английский (48,0 КГц, DTS-HD MA, 6 ch, 3569 кбит/с)
Общее
Формат : Matroska
Версия формата : Version 4 / Version 2
Размер файла : 33,3 Гбайт
Продолжительность : 2 ч. 0 м.
Режим общего битрейта : Переменный
Общий поток : 39,6 Мбит/сек
Название фильма : Gold (2016)
Программа кодирования : mkvmerge v12.0.0 ('Trust / Lust') 64bit
Библиотека кодирования : libebml v1.3.4 + libmatroska v1.4.5

Видео
Идентификатор : 1
Формат : AVC
Формат/Информация : Advanced Video Codec
Профиль формата : High@L4.1
Параметр CABAC формата : Да
Параметр ReFrames формата : 4 кадра
Параметр GOP формата : M=3, N=24
Идентификатор кодека : V_MPEG4/ISO/AVC
Продолжительность : 2 ч. 0 м.
Вид битрейта : Переменный
Битрейт : 26,9 Мбит/сек
Максимальный битрейт : 35,0 Мбит/сек
Ширина : 1920 пикселей
Высота : 1080 пикселей
Соотношение сторон : 16:9
Режим частоты кадров : Постоянный
Частота кадров : 23,976 (23976/1000) кадра/сек
Частота кадров в оригинале : 23,976 (24000/1001) кадра/сек
Стандарт вещания : NTSC
Цветовое пространство : YUV
Субдискретизация насыщенности : 4:2:0
Битовая глубина : 8 бит
Тип развёртки : Прогрессивная
Бит/(Пиксели*Кадры) : 0.540
Размер потока : 22,6 Гбайт (68%)
Заголовок : Gold (2016)
Язык : English
Default : Да
Forced : Нет
Цветовой диапазон : Limited
Основные цвета : BT.709
Характеристики трансфера : BT.709
Коэффициенты матрицы : BT.709

Аудио #1
Идентификатор : 2
Формат : DTS
Формат/Информация : Digital Theater Systems
Профиль формата : MA / Core
Режим : 16
Параметр Endianness формата : Big
Идентификатор кодека : A_DTS
Продолжительность : 2 ч. 0 м.
Вид битрейта : Переменный / Постоянный
Битрейт : 3636 Кбит/сек / 1509 Кбит/сек
Каналы : 6 каналов
Расположение каналов : Front: L C R, Side: L R, LFE
Частота : 48,0 КГц
Частота кадров : 93,750 кадра/сек (512 spf)
Битовая глубина : 24 бит
Метод сжатия : Без потерь / Lossy
Размер потока : 3,06 Гбайт (9%)
Заголовок : AVO Вартан Дохалов
Язык : Russian
Default : Да
Forced : Нет

Аудио #2
Идентификатор : 3
Формат : DTS
Формат/Информация : Digital Theater Systems
Профиль формата : MA / Core
Режим : 16
Параметр Endianness формата : Big
Идентификатор кодека : A_DTS
Продолжительность : 2 ч. 0 м.
Вид битрейта : Переменный / Постоянный
Битрейт : 3623 Кбит/сек / 1509 Кбит/сек
Каналы : 6 каналов
Расположение каналов : Front: L C R, Side: L R, LFE
Частота : 48,0 КГц
Частота кадров : 93,750 кадра/сек (512 spf)
Битовая глубина : 24 бит
Метод сжатия : Без потерь / Lossy
Размер потока : 3,05 Гбайт (9%)
Заголовок : AVO Михаил Чадов
Язык : Russian
Default : Нет
Forced : Нет

Аудио #3
Идентификатор : 4
Формат : DTS
Формат/Информация : Digital Theater Systems
Режим : 16
Параметр Endianness формата : Big
Идентификатор кодека : A_DTS
Продолжительность : 2 ч. 0 м.
Вид битрейта : Постоянный
Битрейт : 1510 Кбит/сек
Каналы : 6 каналов
Расположение каналов : Front: L C R, Side: L R, LFE
Частота : 48,0 КГц
Частота кадров : 93,750 кадра/сек (512 spf)
Битовая глубина : 24 бит
Метод сжатия : С потерями
Размер потока : 1,27 Гбайт (4%)
Заголовок : MVO "Paradox" & Omskbird records
Язык : Russian
Default : Нет
Forced : Нет

Аудио #4
Идентификатор : 5
Формат : AC-3
Формат/Информация : Audio Coding 3
Параметр Endianness формата : Big
Идентификатор кодека : A_AC3
Продолжительность : 2 ч. 0 м.
Вид битрейта : Постоянный
Битрейт : 384 Кбит/сек
Каналы : 6 каналов
Расположение каналов : Front: L C R, Side: L R, LFE
Частота : 48,0 КГц
Частота кадров : 31,250 кадров/сек (1536 spf)
Битовая глубина : 16 бит
Метод сжатия : С потерями
Размер потока : 331 Мбайт (1%)
Заголовок : DUB
Язык : Russian
ServiceKind/String : Complete Main
Default : Нет
Forced : Нет

Аудио #5
Идентификатор : 6
Формат : DTS
Формат/Информация : Digital Theater Systems
Профиль формата : MA / Core
Режим : 16
Параметр Endianness формата : Big
Идентификатор кодека : A_DTS
Продолжительность : 2 ч. 0 м.
Вид битрейта : Переменный / Постоянный
Битрейт : 3569 Кбит/сек / 1509 Кбит/сек
Каналы : 6 каналов
Расположение каналов : Front: L C R, Side: L R, LFE
Частота : 48,0 КГц
Частота кадров : 93,750 кадра/сек (512 spf)
Битовая глубина : 24 бит
Метод сжатия : Без потерь / Lossy
Размер потока : 3,00 Гбайт (9%)
Заголовок : Original
Язык : English
Default : Нет
Forced : Нет

Текст
Идентификатор : 7
Формат : UTF-8
Идентификатор кодека : S_TEXT/UTF8
Идентификатор кодека/Информация : UTF-8 Plain Text
Продолжительность : 1 ч. 52 м.
Битрейт : 64 бит/сек
ElementCount : 1714
Размер потока : 53,1 Кбайт (0%)
Заголовок : Full
Язык : English
Default : Нет
Forced : Нет

Меню
00:00:00.000 : en:00:00:00.000
00:05:22.656 : en:00:05:22.656
00:12:13.358 : en:00:12:13.358
00:18:37.700 : en:00:18:37.700
00:25:58.932 : en:00:25:58.932
00:31:31.515 : en:00:31:31.515
00:37:36.129 : en:00:37:36.129
00:44:01.180 : en:00:44:01.180
00:50:37.201 : en:00:50:37.201
00:57:16.016 : en:00:57:16.016
01:04:13.725 : en:01:04:13.725
01:10:21.175 : en:01:10:21.175
01:16:30.419 : en:01:16:30.419
01:23:53.362 : en:01:23:53.362
01:30:24.419 : en:01:30:24.419
01:36:08.429 : en:01:36:08.429
01:39:51.986 : en:01:39:51.986
01:48:49.690 : en:01:48:49.690
01:52:55.102 : en:01:52:55.102
pb.wtf



Скачать Золото через торрент http://i89.fastpic.ru/big/2017/0212/8a/b2d4abf881009b32bb235c3de665b98a.jpg Скачать фильм Золото через торрент бесплантно в хорошем качестве О фильме: Сюжет рассказывает историю Кенни Уэллса — современного золотоискателя, хваткого дельца и мечтателя, который отчаянно ждёт шанса ... 10 10 4
Info! Золотая раздача, скачанное не засчитывается.
Торрент: Зарегистрирован [2017-07-10 18:54] · скачан: 44 раз
Статус: √ проверено
Размер: 33.28 GB
Как cкачать? Как скачать Золото через торрент | qTorrent

% Раздел Тема Автор DL S | L
RPG [ 2.64 GB ] Gothic II Gold / Готика II Золотое издание [ RU RPG] varpu Скачать
2 | 0
RPG [ 3.94 GB ] Магия крови. Золотое издание / Blood magic. Gold Edition [лицензия RU] Ubik1 Скачать
3 | 0
RPG [ 10.8 GB ] Ведьмак. Золотое издание / The Witcher. Gold Edition [Цифровая лицензия RUS RPG] [Steam-Rip] by Nikitun nikitun Скачать
2 | 0
Классика зарубежного кино [ 1.66 GB ] Золото Маккенны / Mackenna's Gold [1969 DVDRip ] Argis12 Скачать
1 | 0
Фильмографии [ 57.12 GB ] Золотая коллекция Джеки Чана / Jackie Chana's gold collection [1980-2009 боевые искусства DVDRipVHSRip] DragonHard Скачать
2 | 0
RPG [ 1.65 GB ] Князь Тьмы: Золотое издание / Sacred Gold [Repack RU RPG] [R.G. REVOLUTiON] N Скачать
1 | 0
RTS (стратегии в реальном времени) [ 1.69 GB ] Rome: Total War - Золотое издание|Rome: Total War - Gold Edition [Repack Rus Creative Assembley] от [mefist00] $DR@GON$ Скачать
1 | 0

28-11-2019 20:33  

Отключить всю рекламу на сайте

11-07-2017 20:41 Золото Скачать торрент  

Отличный фильм .... всем смотреть .pb.wtf



    Дорогой пользователь! Огромная просьба, поблагодарите релизера, оцените раздачу и оставьте свои комментарий, если Вы скачали Золото через торрент бесплатно! Внесите свою лепту в развитие PiratBit!
    Комментировать посты могут только пользователи прошедшие не сложную регистрацию
    Показать сообщения:    

    Золото через торрент
    Скачать бесплатно Золото
    Золото скачать торрент
    Золото смотреть онлайн
    Cкачать фильм Золото бесплатно
    Золото скачать торрент в хорошем качестве
    Золото смотреть онлайн бесплатно в хорошем качестве


    Вы не можете начинать темы
    Вы не можете отвечать на сообщения
    Вы не можете редактировать свои сообщения
    Вы не можете удалять свои сообщения
    Вы не можете голосовать в опросах
    Вы не можете прикреплять файлы к сообщениям
    Вы можете скачивать файлы