2 сезон

iTunes

1 сезон

1

iTunes

iTunes

iTunes

1 сезон

RePack

30

ИГРА 18+

pack

ВАЖНО

!!Акция!!

Alien_RageХит недели

RePack

MK11
pack

Забери бонус

RePack

jed

!!Акция!!

Alien_Rage

RePack

fifa19

RePack

Assassins Creed: Odyssey

RePack

NEED FOR SPEED™ PAYBACK

4 сезон

9 сезон

Бесстыжие 9 сезон

Все сериалы

все сериалы на PB.wtf

RePack

FAR CRY 5
  

СПАРК. Герой Вселенной / Spark: A Space Tail (Аарон Вудли) [2016 г., семейный, мультфильм, комедия, BDRip-AVC, Профессиональный (полное дублирование)] iTunes - ExKinoRay pb.wtf

СПАРК. Герой Вселенной через торрент pb.wtf

Размер: 1.71 GB | Добавлен: 3 года 3 мес. назад | Торрент скачан:400 раз
Скачать  

10-07-2017 23:21 СПАРК. Герой Вселенной Скачать торрент  

Информация о фильме
Название: СПАРК. Герой Вселенной
Оригинальное название: A Space Tail
Год выпуска: 2016
Жанр: Семейный, мультфильм, комедия
Страна: Канада, Корея Южная
Студия: Gulfstream Pictures, Red Rover International, Shanghai Hoongman Technology Co., ToonBox Entertainment
Продолжительность: 01:31:28
Перевод: Дублированный | iTunes
Субтитры: Английские
Режиссер: Аарон Вудли
В ролях: Джессика Бил, Сьюзен Сарандон, Патрик Стюарт, Хилари Суэнк, Джейс Норман, Афина Карканис, Алан С. Петерсон, Иван Шерри, Джейсон Делайн, Аарон Вудли

Описание:
Могущественные силы зла захватили прекрасную планету и поработили всю Вселенную. Но ничто не заставит Спарка и его верных друзей сдаться.

Если у тебя храброе и доброе сердце, несгибаемая воля к победе и преданная команда, любая задача тебе по плечу! Звездная миссия по спасению Вселенной начинается.


rating

Файл
Формат: MKV
Качество: BDRip-AVC
Видео: MPEG-4 AVC, 1024x428 (2.40:1), ~ 1850 kbps avg, 23.976 FPS, 0.176 bit/pixel
Аудио 1: AC-3, 48.0 KHz, 5.1 ch, 384 Kbps, CBR (Russian)
Аудио 2: AC-3, 48.0 KHz, 5.1 ch, 448 Kbps, CBR (Russian)

Без какой-либо рекламы
General
Unique ID : 186061115497411270949256060180307354046 (0x8BFA113FF6A8491D8A9F5F098DCBA1BE)
Complete name : D:\Spark.A.Space.Tail.2016.BDRip.AVC.ExKinoRay.mkv
Format : Matroska
Format version : Version 2
File size : 1.71 GiB
Duration : 1 h 31 min
Overall bit rate : 2 683 kb/s
Movie name : Spark A Space Tail 2016 from ExKinoRay
Encoded date : UTC 2017-07-10 22:55:53
Writing application : mkvmerge v5.6.0 ('Kenya Kane') built on May 27 2012 16:44:04
Writing library : libebml v1.2.3 + libmatroska v1.3.0

Video
ID : 1
Format : AVC
Format/Info : Advanced Video Codec
Format profile : High@L4.1
Format settings, CABAC : Yes
Format settings, ReFrames : 11 frames
Codec ID : V_MPEG4/ISO/AVC
Duration : 1 h 31 min
Bit rate : 1 850 kb/s
Width : 1 024 pixels
Height : 428 pixels
Display aspect ratio : 2.40:1
Frame rate mode : Constant
Frame rate : 23.976 (23976/1000) FPS
Color space : YUV
Chroma subsampling : 4:2:0
Bit depth : 8 bits
Scan type : Progressive
Bits/(Pixel*Frame) : 0.176
Stream size : 1.15 GiB (67%)
Title : Enigma
Writing library : x264 core 144 r2525 40bb568
Encoding settings : cabac=1 / ref=11 / deblock=1:-2:-2 / analyse=0x3:0x113 / me=umh / subme=10 / psy=1 / psy_rd=1.02:0.08 / mixed_ref=1 / me_range=32 / chroma_me=1 / trellis=2 / 8x8dct=1 / cqm=0 / deadzone=21,11 / fast_pskip=1 / chroma_qp_offset=-3 / threads=12 / lookahead_threads=3 / sliced_threads=0 / nr=0 / decimate=0 / interlaced=0 / bluray_compat=0 / constrained_intra=0 / bframes=11 / b_pyramid=2 / b_adapt=2 / b_bias=0 / direct=3 / weightb=1 / open_gop=0 / weightp=2 / keyint=240 / keyint_min=23 / scenecut=40 / intra_refresh=0 / rc_lookahead=40 / rc=2pass / mbtree=0 / bitrate=1850 / ratetol=1.0 / qcomp=0.60 / qpmin=0 / qpmax=51 / qpstep=4 / cplxblur=20.0 / qblur=0.5 / vbv_maxrate=50000 / vbv_bufsize=62500 / nal_hrd=none / filler=0 / ip_ratio=1.40 / pb_ratio=1.30 / aq=1:1.00
Language : English
Default : Yes
Forced : No
Color range : Limited
Color primaries : BT.709
Transfer characteristics : BT.709
Matrix coefficients : BT.709

Audio #1
ID : 2
Format : AC-3
Format/Info : Audio Coding 3
Mode extension : CM (complete main)
Format settings, Endianness : Big
Codec ID : A_AC3
Duration : 1 h 31 min
Bit rate mode : Constant
Bit rate : 384 kb/s
Channel(s) : 6 channels
Channel positions : Front: L C R, Side: L R, LFE
Sampling rate : 48.0 kHz
Frame rate : 31.250 FPS (1536 spf)
Compression mode : Lossy
Stream size : 251 MiB (14%)
Title : iTunes
Language : Russian
Default : Yes
Forced : No

Audio #2
ID : 3
Format : AC-3
Format/Info : Audio Coding 3
Mode extension : CM (complete main)
Format settings, Endianness : Big
Codec ID : A_AC3
Duration : 1 h 31 min
Bit rate mode : Constant
Bit rate : 448 kb/s
Channel(s) : 6 channels
Channel positions : Front: L C R, Side: L R, LFE
Sampling rate : 48.0 kHz
Frame rate : 31.250 FPS (1536 spf)
Compression mode : Lossy
Stream size : 293 MiB (17%)
Language : English
Default : No
Forced : No

Text
ID : 4
Format : UTF-8
Codec ID : S_TEXT/UTF8
Codec ID/Info : UTF-8 Plain Text
Language : English
Default : No
Forced : No

Menu
00:00:00.000 : en:Chapter 01
00:10:20.745 : en:Chapter 02
00:20:26.600 : en:Chapter 03
00:30:42.799 : en:Chapter 04
00:41:17.475 : en:Chapter 05
00:51:33.423 : en:Chapter 06
01:01:36.234 : en:Chapter 07
01:12:35.517 : en:Chapter 08
01:23:05.063 : en:Chapter 09
Релиз от:

Автор релиза: pb.wtf



Скачать СПАРК. Герой Вселенной через торрент http://s016.radikal.ru/i334/1707/58/2f909891d7e4.jpg Скачать фильм СПАРК. Герой Вселенной через торрент бесплантно в хорошем качестве Описание: Могущественные силы зла захватили прекрасную планету и поработили всю Вселенную. Но ничто не заставит Спарка и его верных друзей ... 8.4 10 12
Info! Золотая раздача, скачанное не засчитывается.
Торрент: Зарегистрирован [2017-07-10 23:21] · скачан: 400 раз
Статус: √ проверено
Размер: 1.71 GB
Как cкачать? Как скачать СПАРК. Герой Вселенной через торрент | qTorrent

28-11-2019 20:33  

Отключить всю рекламу на сайте

    Дорогой пользователь! Огромная просьба, поблагодарите релизера, оцените раздачу и оставьте свои комментарий, если Вы скачали СПАРК. Герой Вселенной через торрент бесплатно! Внесите свою лепту в развитие PiratBit!
    Комментировать посты могут только пользователи прошедшие не сложную регистрацию
    Показать сообщения:    

    СПАРК. Герой Вселенной через торрент
    Скачать бесплатно СПАРК. Герой Вселенной
    СПАРК. Герой Вселенной скачать торрент
    СПАРК. Герой Вселенной смотреть онлайн
    Cкачать фильм СПАРК. Герой Вселенной бесплатно
    СПАРК. Герой Вселенной скачать торрент в хорошем качестве
    СПАРК. Герой Вселенной смотреть онлайн бесплатно в хорошем качестве


    Вы не можете начинать темы
    Вы не можете отвечать на сообщения
    Вы не можете редактировать свои сообщения
    Вы не можете удалять свои сообщения
    Вы не можете голосовать в опросах
    Вы не можете прикреплять файлы к сообщениям
    Вы можете скачивать файлы