Ссылка на приватное зеркало нашего сайта всего за 1$. Внимание количество ограничено!!!

2 сезон

iTunes

1 сезон

1

iTunes

iTunes

iTunes

1 сезон

RePack

30

ИГРА 18+

pack

ВАЖНО

!!Акция!!

Alien_RageХит недели

RePack

MK11
pack

Забери бонус

RePack

jed

!!Акция!!

Alien_Rage

RePack

fifa19

RePack

Assassins Creed: Odyssey

RePack

NEED FOR SPEED™ PAYBACK

4 сезон

9 сезон

Бесстыжие 9 сезон

Все сериалы

все сериалы на PB.wtf

RePack

FAR CRY 5
  

Прощай, Сабата / Adios Sabata (Джанфранко Паролини) [1970, боевик, вестерн, военный, BDRip 1080p by msltel] DVO, AVO pb.wtf

Прощай, Сабата через торрент pb.wtf

Размер: 11.02 GB | Добавлен: 3 года 3 мес. назад | Торрент скачан:5 раз
Скачать  

11-07-2017 05:29 Прощай, Сабата Скачать торрент  

Название: Прощай, Сабата
Оригинальное название: Adios Sabata
Год выпуска: 1970
Страна: Италия, Испания
Жанр: боевик, вестерн, военный
Продолжительность: 01:45:09
Перевод: профессиональный двухголосый, авторский

Режиссер: Джанфранко Паролини
В ролях: Бруно Кораццари, Антонио Градоли, Игнацио Спалла, Витторио Фанфони, Жерар Хертер, Калисто Калисти, Дин Рид, Франко Марлетта, Юл Бриннер, Vittorio Caronia, Нивз Наварро, Массимо Кароччи, Джозеф П. Персауд, Андреа Аурели, Лучано Касамоника, Франко Фантазия, Омар Бонаро, Сальваторе Билла, Сол Борджезе, Андреа Скотти

Описание: Сабата, лучший стрелок дикого Запада, помогает мексиканским повстанцам украсть повозку с золотом, на которое они планируют купить оружие. Однако на это золото уже успела позариться и местная бандитская шайка...



Качество: BDRip 1080p
Формат: MKV
Видео: MPEG-4 AVC, 13.1 Mбит/с, 1920x820
Аудио 1: русский, AC3, 192 kbps, 2 ch, 48 kHz [профессиональный двухголосый, HTB+]
Аудио 2: русский, AC3, 192 kbps, 2 ch, 48 kHz [авторский, Сергей Кузнецов]
Аудио 3: английский, DTS, 1509 kbps, 2 ch, 48 kHz [оригинал]
Субтитры: английские
Имеются неименованные главы/чаптеры.
Общее
Уникальный идентификатор : 249894553394682525874059763702926514151 (0xBBFFF0B99C96C5EB86D05434AEED97E7)
Полное имя : D:\Video\Прощай, Сабата.1970.BDRip.1080p by msltel.mkv
Формат : Matroska
Версия формата : Version 4 / Version 2
Размер файла : 11,0 Гбайт
Продолжительность : 1 ч. 45 м.
Общий поток : 15,0 Мбит/сек
Название фильма : Rip by msltel
Дата кодирования : UTC 2017-07-11 02:02:55
Программа кодирования : mkvmerge v8.2.0 ('World of Adventure') 64bit
Библиотека кодирования : libebml v1.3.1 + libmatroska v1.4.2

Видео
Идентификатор : 1
Формат : AVC
Формат/Информация : Advanced Video Codec
Профиль формата : High@L4.1
Параметр CABAC формата : Да
Параметр ReFrames формата : 4 кадра
Идентификатор кодека : V_MPEG4/ISO/AVC
Продолжительность : 1 ч. 45 м.
Битрейт : 13,1 Мбит/сек
Ширина : 1920 пикселей
Высота : 820 пикселей
Соотношение сторон : 2,35:1
Режим частоты кадров : Постоянный
Частота кадров : 23,976 (24000/1001) кадра/сек
Цветовое пространство : YUV
Субдискретизация насыщенности : 4:2:0
Битовая глубина : 8 бит
Тип развёртки : Прогрессивная
Бит/(Пиксели*Кадры) : 0.347
Размер потока : 9,62 Гбайт (87%)
Библиотека кодирования : x264 core 146 r2538 121396c
Настройки программы : cabac=1 / ref=4 / deblock=1:-3:-2 / analyse=0x3:0x113 / me=umh / subme=11 / psy=1 / psy_rd=1.00:0.15 / mixed_ref=1 / me_range=32 / chroma_me=1 / trellis=2 / 8x8dct=1 / cqm=0 / deadzone=21,11 / fast_pskip=0 / chroma_qp_offset=-3 / threads=6 / lookahead_threads=1 / sliced_threads=0 / nr=0 / decimate=1 / interlaced=0 / bluray_compat=0 / constrained_intra=0 / bframes=9 / b_pyramid=2 / b_adapt=2 / b_bias=0 / direct=1 / weightb=1 / open_gop=0 / weightp=2 / keyint=230 / keyint_min=23 / scenecut=40 / intra_refresh=0 / rc_lookahead=40 / rc=crf / mbtree=0 / crf=19.7 / qcomp=0.60 / qpmin=0 / qpmax=69 / qpstep=4 / vbv_maxrate=62500 / vbv_bufsize=78125 / crf_max=0.0 / nal_hrd=none / filler=0 / ip_ratio=1.40 / pb_ratio=1.30 / aq=1:1.00
Язык : English
Default : Да
Forced : Нет

Аудио #1
Идентификатор : 2
Формат : AC-3
Формат/Информация : Audio Coding 3
Параметр Endianness формата : Big
Идентификатор кодека : A_AC3
Продолжительность : 1 ч. 45 м.
Вид битрейта : Постоянный
Битрейт : 192 Кбит/сек
Каналы : 2 канала
Расположение каналов : Front: L R
Частота : 48,0 КГц
Частота кадров : 31,250 кадров/сек (1536 spf)
Битовая глубина : 16 бит
Метод сжатия : С потерями
Размер потока : 144 Мбайт (1%)
Заголовок : DVO (HTB+)
Язык : Russian
ServiceKind/String : Complete Main
Default : Да
Forced : Нет

Аудио #2
Идентификатор : 3
Формат : AC-3
Формат/Информация : Audio Coding 3
Параметр Endianness формата : Big
Идентификатор кодека : A_AC3
Продолжительность : 1 ч. 45 м.
Вид битрейта : Постоянный
Битрейт : 192 Кбит/сек
Каналы : 2 канала
Расположение каналов : Front: L R
Частота : 48,0 КГц
Частота кадров : 31,250 кадров/сек (1536 spf)
Битовая глубина : 16 бит
Метод сжатия : С потерями
Размер потока : 144 Мбайт (1%)
Заголовок : AVO (Сергей Кузнецов)
Язык : Russian
ServiceKind/String : Complete Main
Default : Нет
Forced : Нет

Аудио #3
Идентификатор : 4
Формат : DTS
Формат/Информация : Digital Theater Systems
Режим : 16
Параметр Endianness формата : Big
Идентификатор кодека : A_DTS
Продолжительность : 1 ч. 45 м.
Вид битрейта : Постоянный
Битрейт : 1509 Кбит/сек
Каналы : 2 канала
Расположение каналов : Front: L R
Частота : 48,0 КГц
Частота кадров : 93,750 кадра/сек (512 spf)
Битовая глубина : 16 бит
Метод сжатия : С потерями
Размер потока : 1,11 Гбайт (10%)
Язык : English
Default : Нет
Forced : Нет

Текст
Идентификатор : 5
Формат : UTF-8
Идентификатор кодека : S_TEXT/UTF8
Идентификатор кодека/Информация : UTF-8 Plain Text
Продолжительность : 1 ч. 44 м.
Битрейт : 30 бит/сек
ElementCount : 684
Размер потока : 23,3 Кбайт (0%)
Заголовок : английские
Язык : English
Default : Нет
Forced : Нет

Меню
00:00:00.000 : :Chapter 01
00:08:24.503 : :Chapter 02
00:16:14.974 : :Chapter 03
00:28:50.729 : :Chapter 04
00:33:12.991 : :Chapter 05
00:41:24.482 : :Chapter 06
00:53:46.223 : :Chapter 07
01:00:11.608 : :Chapter 08
01:07:45.061 : :Chapter 09
01:17:50.666 : :Chapter 10
01:24:41.076 : :Chapter 11
01:32:08.523 : :Chapter 12
pb.wtf



Скачать Прощай, Сабата через торрент http://i069.radikal.ru/1707/97/13e3c65eb299.jpg Скачать фильм Прощай, Сабата через торрент бесплантно в хорошем качестве Описание: Сабата, лучший стрелок дикого Запада, помогает мексиканским повстанцам украсть повозку с золотом, на которое они планируют купить ... 10 10 2
Info! Золотая раздача, скачанное не засчитывается.
Торрент: Зарегистрирован [2017-07-11 05:29] · скачан: 5 раз
Статус: √ проверено
Размер: 11.02 GB
Как cкачать? Как скачать Прощай, Сабата через торрент | qTorrent

% Раздел Тема Автор DL S | L
Фильмы [HD 720p, 1080p] (Хороший звук DUB, MVO) [ 4.13 GB ] Прощай Сабата / Adios Sabata [1970 военный BDRip 720p by msltel] DVO AVO msltel Скачать
1 | 0

28-11-2019 20:33  

Отключить всю рекламу на сайте

    Дорогой пользователь! Огромная просьба, поблагодарите релизера, оцените раздачу и оставьте свои комментарий, если Вы скачали Прощай, Сабата через торрент бесплатно! Внесите свою лепту в развитие PiratBit!
    Комментировать посты могут только пользователи прошедшие не сложную регистрацию
    Показать сообщения:    

    Прощай, Сабата через торрент
    Скачать бесплатно Прощай, Сабата
    Прощай, Сабата скачать торрент
    Прощай, Сабата смотреть онлайн
    Cкачать фильм Прощай, Сабата бесплатно
    Прощай, Сабата скачать торрент в хорошем качестве
    Прощай, Сабата смотреть онлайн бесплатно в хорошем качестве


    Вы не можете начинать темы
    Вы не можете отвечать на сообщения
    Вы не можете редактировать свои сообщения
    Вы не можете удалять свои сообщения
    Вы не можете голосовать в опросах
    Вы не можете прикреплять файлы к сообщениям
    Вы можете скачивать файлы