Ссылка на приватное зеркало всего за 1$. Внимание количество ограничено!!!

iTunes

iTunes

iTunes

1

iTunes

iTunes

iTunes

iTunes

iTunes

30
pack

$ от Little Big

ВАЖНО

!!Акция!!

Alien_RageХит недели

RePack

Resident Evil 21

ИГРА 18+

pack

RePack

jed

!!Акция!!

Alien_Rage

RePack

fifa19

RePack

Assassins Creed: Odyssey

RePack

NEED FOR SPEED™ PAYBACK

4 сезон

9 сезон

Бесстыжие 9 сезон

Все сериалы

все сериалы на PB.wtf

RePack

FAR CRY 5
  

Уйти красиво / Going in Style (Зак Брафф) [2017, Комедия, криминал, WEB-DL 720p] DUB [iTunes] pb.wtf

Уйти красиво через торрент pb.wtf

Размер: 3.24 GB | Добавлен: 3 года назад | Торрент скачан:796 раз
Скачать  

11-07-2017 20:00 Уйти красиво Скачать торрент  

Уйти красиво / Going in Style
Год выпуска: 2017
Страна: США
Жанр: Комедия, криминал
Продолжительность: 01:36:23
Перевод: Дубляж iTunes
Субтитры: английские

Режиссер: Зак Брафф

rating

В ролях:

Джои Кинг, Морган Фримен, Энн-Маргрет, Майкл Кейн, Алан Аркин, Кристофер Ллойд, Питер Серафинович, Мэтт Диллон, Шиван Фэллон, Джон Ортис

Описание:

Старые друзья Вилли, Джо и Эла, несмотря на свой пенсионный возраст, впервые в жизни решают свернуть с праведного пути, чтобы сохранить свои пенсионные накопления.

Качество: WEB-DL 720p
Формат: MKV
Видео кодек: H.264
Аудио кодек: AC3

Видео: MPEG-4 AVC, 1280x530, 4040 Кbit/s, 23.976 fps
Аудио#1: 48 kHz, AC3, 5.1, 384 Kbps | Дублированный | iTunes | RUS |
Аудио#2: 48 kHz, AC3, 5.1, 384 Kbps | Оригинал | ENG |
скриншот   скриншот   скриншот   скриншот   скриншот  

General
Unique ID : 230842281868756694605367092152356864878 (0xADAA9B370328D633B7CC83008E24836E)
Complete name : C:UsersbattiDesktopGoing.in.Style.2017.WEB-DL.720p.ExKinoRay.mkv
Format : Matroska
Format version : Version 4 / Version 2
File size : 3.24 GiB
Duration : 1 h 36 min
Overall bit rate : 4 810 kb/s
Encoded date : UTC 2017-07-11 18:46:18
Writing application : mkvmerge v13.0.0 ('The Juggler') 64bit
Writing library : libebml v1.3.4 + libmatroska v1.4.5

Video
ID : 1
Format : AVC
Format/Info : Advanced Video Codec
Format profile : Main@L3.1
Format settings, CABAC : No
Format settings, ReFrames : 2 frames
Codec ID : V_MPEG4/ISO/AVC
Duration : 1 h 36 min
Bit rate : 4 040 kb/s
Width : 1 280 pixels
Height : 530 pixels
Display aspect ratio : 2.40:1
Frame rate mode : Constant
Frame rate : 23.976 (23976/1000) FPS
Color space : YUV
Chroma subsampling : 4:2:0
Bit depth : 8 bits
Scan type : Progressive
Bits/(Pixel*Frame) : 0.248
Stream size : 2.72 GiB (84%)
Language : English
Default : Yes
Forced : No
Color range : Limited
Color primaries : BT.709
Transfer characteristics : BT.709
Matrix coefficients : BT.709

Audio #1
ID : 2
Format : AC-3
Format/Info : Audio Coding 3
Format settings, Endianness : Big
Codec ID : A_AC3
Duration : 1 h 36 min
Bit rate mode : Constant
Bit rate : 384 kb/s
Channel(s) : 6 channels
Channel positions : Front: L C R, Side: L R, LFE
Sampling rate : 48.0 kHz
Frame rate : 31.250 FPS (1536 spf)
Bit depth : 16 bits
Compression mode : Lossy
Stream size : 265 MiB (8%)
Title : iTunes
Language : Russian
Service kind : Complete Main
Default : Yes
Forced : No

Audio #2
ID : 3
Format : AC-3
Format/Info : Audio Coding 3
Format settings, Endianness : Big
Codec ID : A_AC3
Duration : 1 h 36 min
Bit rate mode : Constant
Bit rate : 384 kb/s
Channel(s) : 6 channels
Channel positions : Front: L C R, Side: L R, LFE
Sampling rate : 48.0 kHz
Frame rate : 31.250 FPS (1536 spf)
Bit depth : 16 bits
Compression mode : Lossy
Stream size : 265 MiB (8%)
Title : Original
Language : English
Service kind : Complete Main
Default : No
Forced : No

Text
ID : 4
Format : UTF-8
Codec ID : S_TEXT/UTF8
Codec ID/Info : UTF-8 Plain Text
Duration : 1 h 29 min
Bit rate : 68 b/s
Count of elements : 1564
Stream size : 44.5 KiB (0%)
Title : Full
Language : English
Default : No
Forced : No

Menu
00:00:00.000 : en:1
00:10:03.000 : en:2
00:20:02.000 : en:3
00:28:28.000 : en:4
00:39:42.000 : en:5
00:50:58.000 : en:6
00:58:32.000 : en:7
01:09:50.000 : en:8
01:22:05.000 : en:9
01:30:31.000 : en:10

pb.wtf



Скачать Уйти красиво через торрент http://s019.radikal.ru/i637/1707/27/70f269ac6965.jpg Скачать фильм Уйти красиво через торрент бесплантно в хорошем качестве Описание: Старые друзья Вилли, Джо и Эла, несмотря на свой пенсионный возраст, впервые в жизни решают свернуть с праведного пути, чтобы ... 9.9 10 15
Info! Золотая раздача, скачанное не засчитывается.
Торрент: Зарегистрирован [2017-07-11 20:00] · скачан: 796 раз
Статус: √ проверено
Размер: 3.24 GB
Как cкачать? Как скачать Уйти красиво через торрент | qTorrent

% Раздел Тема Автор DL S | L
Фильмы 2017 [DVDrip, WEB-DLRip, HDrip] (DUB, MVO) [ 746 MB ] Уйти красиво / Going in Style [2017 WEB-DLRip] bober100 Скачать
1 | 0
Фильмы [HD 720p, 1080p] (Хороший звук DUB, MVO) [ 9.7 GB ] Уйти красиво / Going in Style [2017 BDRip 1080p] - [] -Lexx- Скачать
1 | 0
Фильмы 2017 [DVDrip, WEB-DLRip, HDrip] (DUB, MVO) [ 1.46 GB ] Уйти красиво / Going in Style [2017 BDRip] - [] Twi7ter Скачать
3 | 0
Фильмы 2017 [DVDrip, WEB-DLRip, HDrip] (DUB, MVO) [ 1.95 GB ] Уйти красиво / Going in Style [2017 HDRip-AVC] - ExKinoRay Enigma2010 Скачать
2 | 0
Фильмы (Blu-ray, BD-Remux, HDDVD) [ 24.4 GB ] Уйти красиво / Going in Style [2017 BD Remux 1080p] 2xDUB [] bober100 Скачать
1 | 0
Фильмы без перевода [ 24.07 GB ] Уйти красиво / Going in Style [2017 BDRemux] [Оригинал-ENG] smaster Скачать
1 | 0
Фильмы с украинским озвучиванием [ 1.46 GB ] Уйти красиво / Красиво піти / Going in Style [2017 WEB-DLRip] [Ukr DUB] killermax2013 Скачать
1 | 0

28-11-2019 20:33  

Отключить всю рекламу на сайте

09-08-2017 10:15 Уйти красиво Скачать торрент  

хороший фильмpb.wtf



    Дорогой пользователь! Огромная просьба, поблагодарите релизера, оцените раздачу и оставьте свои комментарий, если Вы скачали Уйти красиво через торрент бесплатно! Внесите свою лепту в развитие PiratBit!
    Комментировать посты могут только пользователи прошедшие не сложную регистрацию
    Показать сообщения:    

    Уйти красиво через торрент
    Скачать бесплатно Уйти красиво
    Уйти красиво скачать торрент
    Уйти красиво смотреть онлайн
    Cкачать фильм Уйти красиво бесплатно
    Уйти красиво скачать торрент в хорошем качестве
    Уйти красиво смотреть онлайн бесплатно в хорошем качестве


    Вы не можете начинать темы
    Вы не можете отвечать на сообщения
    Вы не можете редактировать свои сообщения
    Вы не можете удалять свои сообщения
    Вы не можете голосовать в опросах
    Вы не можете прикреплять файлы к сообщениям
    Вы можете скачивать файлы