Ссылка на приватное зеркало всего за 1$. Внимание количество ограничено!!!

iTunes

iTunes

iTunes

1

iTunes

iTunes

iTunes

iTunes

iTunes

30
pack

$ от Little Big

ВАЖНО

!!Акция!!

Alien_RageХит недели

RePack

Resident Evil 21

ИГРА 18+

pack

RePack

jed

!!Акция!!

Alien_Rage

RePack

fifa19

RePack

Assassins Creed: Odyssey

RePack

NEED FOR SPEED™ PAYBACK

4 сезон

9 сезон

Бесстыжие 9 сезон

Все сериалы

все сериалы на PB.wtf

RePack

FAR CRY 5
  

Он и Она / Mr & Mme Adelman (Николя Бедос) [2017, комедия, мелодрама, WEB-DL 1080p] [Локализованная версия] Дубляж - [Лицензия / iTunes] pb.wtf

Он и Она через торрент pb.wtf

Размер: 4.16 GB | Добавлен: 3 года назад | Торрент скачан:378 раз
Скачать  

12-07-2017 07:55 Он и Она Скачать торрент  

Он и Она / Mr & Mme Adelman
««Любовь — это все что угодно, только не скука»»

Год выпуска: 2017
Страна: Франция, Бельгия
Жанр: комедия, мелодрама
Продолжительность: 02:00:26
Перевод: Дубляж - [Лицензия / iTunes]
Режиссер: Николя Бедос
В ролях:

Дория Тилье (Sarah Adelman), Николя Бедос (Victor de Richemont dit Adelman), Дени Подалидес (Le psy), Антуан Гуи (Le journaliste Antoine Grillot), Кристиана Милле (Sylvie de Richemont), Пьер Ардити (Claude de Richemont), Забу Брайтман (La directrice de l'école d'Arthur), Жюльен Буасселье (Antoine de Richemont), Жан-Пьер Лори (Marc Danchelier), Жак Ланг (играет самого себя), Николя Бриансон (Le pédiatre), Бетти Рейхер (Madame Adelman - la mère de Sarah)
Описание:
Виктор - начинающий писатель, Сара - магистр в области классической литературы, их общая слабость - Джойс и Достоевский. Они были свободны и беспечны, но их случайная встреча в баре затянется на долгие 45 лет. Как справятся они с успехом, богатством и банальной скукой? Кто получит все, а кто останется в тени? История одной семьи, большой любви, на фоне переполненных солнцем бульваров Парижа.
Рейтинг:

Качество: WEB-DL 1080p
Формат: MKV
Видео: AVC, 1920x800 (2.40:1), 4564 kbps, 24 fps, 0,124 bpp
Аудио: русский / AC3 / 5.1 / 48 kHz / 384 kbps / |Дубляж|
Навигация по главам: есть

General
Unique ID : 198507268415375133626421476865806416196 (0x95571BF7481A494D8BE2E551DE17B944)
Complete name : E:\Mr.and.Mme.Adelman.2017.D.1080p.WEB-DL.mkv
Format : Matroska
Format version : Version 4 / Version 2
File size : 4.16 GiB
Duration : 2 h 0 min
Overall bit rate : 4 950 kb/s
Encoded date : UTC 2017-07-12 07:45:27
Writing application : mkvmerge v13.0.0 ('The Juggler') 64bit
Writing library : libebml v1.3.4 + libmatroska v1.4.5

Video
ID : 1
Format : AVC
Format/Info : Advanced Video Codec
Format profile : High@L4
Format settings, CABAC : Yes
Format settings, ReFrames : 5 frames
Codec ID : V_MPEG4/ISO/AVC
Duration : 2 h 0 min
Bit rate : 4 565 kb/s
Width : 1 920 pixels
Height : 800 pixels
Display aspect ratio : 2.40:1
Frame rate mode : Constant
Frame rate : 24.000 FPS
Color space : YUV
Chroma subsampling : 4:2:0
Bit depth : 8 bits
Scan type : Progressive
Bits/(Pixel*Frame) : 0.124
Stream size : 3.84 GiB (92%)
Language : English
Default : Yes
Forced : No
Color range : Limited
Color primaries : BT.709
Transfer characteristics : BT.709
Matrix coefficients : BT.709

Audio
ID : 2
Format : AC-3
Format/Info : Audio Coding 3
Mode extension : CM (complete main)
Format settings, Endianness : Big
Codec ID : A_AC3
Duration : 2 h 0 min
Bit rate mode : Constant
Bit rate : 384 kb/s
Channel(s) : 6 channels
Channel positions : Front: L C R, Side: L R, LFE
Sampling rate : 48.0 kHz
Frame rate : 31.250 FPS (1536 spf)
Compression mode : Lossy
Stream size : 331 MiB (8%)
Language : Russian
Default : Yes
Forced : No

Menu
00:00:00.000 : en:Глава 1
00:07:39.208 : en:Глава 2
00:13:02.958 : en:Глава 3
00:17:24.208 : en:Глава 4
00:24:07.333 : en:Глава 5
00:28:01.708 : en:Глава 6
00:33:11.208 : en:Глава 7
00:38:45.249 : en:Глава 8
00:46:03.249 : en:Глава 9
00:52:06.290 : en:Глава 10
00:59:30.206 : en:Глава 11
01:06:50.581 : en:Глава 12
01:13:31.705 : en:Глава 13
01:19:48.580 : en:Глава 14
01:27:32.246 : en:Глава 15
01:33:23.703 : en:Глава 16
01:38:20.535 : en:Глава 17
01:44:27.617 : en:Глава 18
01:50:35.074 : en:Глава 19
pb.wtf



Скачать Он и Она через торрент http://i5.imageban.ru/out/2017/07/12/1ceaec5a0dfb8b536c1168b6fc9e121e.jpg Скачать фильм Он и Она через торрент бесплантно в хорошем качестве Описание: Виктор - начинающий писатель, Сара - магистр в области классической литературы, их общая слабость - Джойс и Достоевский. Они были ... 10 10 5
Info! Золотая раздача, скачанное не засчитывается.
Торрент: Зарегистрирован [2017-07-12 07:55] · скачан: 378 раз
Статус: √ проверено
Размер: 4.16 GB
Как cкачать? Как скачать Он и Она через торрент | qTorrent

28-11-2019 20:33  

Отключить всю рекламу на сайте

19-07-2017 20:08 Он и Она Скачать торрент  

Спасибо! Многие хвалят фильм, глянем....pb.wtf
K-Lexx- писал(а):

Приятного просмотра.



    Дорогой пользователь! Огромная просьба, поблагодарите релизера, оцените раздачу и оставьте свои комментарий, если Вы скачали Он и Она через торрент бесплатно! Внесите свою лепту в развитие PiratBit!
    Комментировать посты могут только пользователи прошедшие не сложную регистрацию
    Показать сообщения:    

    Он и Она через торрент
    Скачать бесплатно Он и Она
    Он и Она скачать торрент
    Он и Она смотреть онлайн
    Cкачать фильм Он и Она бесплатно
    Он и Она скачать торрент в хорошем качестве
    Он и Она смотреть онлайн бесплатно в хорошем качестве


    Вы не можете начинать темы
    Вы не можете отвечать на сообщения
    Вы не можете редактировать свои сообщения
    Вы не можете удалять свои сообщения
    Вы не можете голосовать в опросах
    Вы не можете прикреплять файлы к сообщениям
    Вы можете скачивать файлы