Ссылка на приватное зеркало нашего сайта всего за 1$. Внимание количество ограничено!!!

2 сезон

iTunes

1 сезон

1

iTunes

iTunes

iTunes

1 сезон

RePack

30

ИГРА 18+

pack

ВАЖНО

!!Акция!!

Alien_RageХит недели

RePack

MK11
pack

Забери бонус

RePack

jed

!!Акция!!

Alien_Rage

RePack

fifa19

RePack

Assassins Creed: Odyssey

RePack

NEED FOR SPEED™ PAYBACK

4 сезон

9 сезон

Бесстыжие 9 сезон

Все сериалы

все сериалы на PB.wtf

RePack

FAR CRY 5
  

Джихад / Khartoum (Бэзил Дирден, Элиот Элисофон) [1966, боевик, драма, приключения, военный, история, BDRip 1080p by msltel] 3 x MVO, AVO pb.wtf

Джихад через торрент pb.wtf

Размер: 13.13 GB | Добавлен: 3 года 3 мес. назад | Торрент скачан:13 раз
Скачать  

12-07-2017 08:28 Джихад Скачать торрент  

Название: Джихад
Оригинальное название: Khartoum
Год выпуска: 1966
Страна: Великобритания
Жанр: боевик, драма, приключения, военный, история
Продолжительность: 02:16:10
Перевод: профессиональный многоголосый, авторский

Режиссер: Бэзил Дирден, Элиот Элисофон
В ролях: Чарлтон Хестон, Лоуренс Оливье, Ричард Джонсон, Ральф Ричардсон, Александр Нокс, Джонни Секка, Майкл Хордерн, Зия Мохьеддин, Марне Мейтленд, Хью Уильямс, Ральф Майкл, Дуглас Уилмер, Эдвард Андердаун, Питер Арне, Алан Тилверн, Майкл Энтони, Роджер Делгадо, Рональд Ли-Хант, Алек Мэнго, Джордж Пастелл

Описание: Масштабное столкновение между английским генералом Чарльзом Гордоном и объявившим чуждым пришельцам-захватчикам священную войну «джихад» мусульманским лидером Махди, одно имя которого говорит о непокорности и мистических тайнах... Сюжетная линия фильма основана на истории обороны суданского города Хартум в ходе восстания махдистов.



Качество: BDRip 1080p
Формат: MKV
Видео: MPEG-4 AVC, 12.8 Mбит/с, 1920x700, 23.976 кадр/с
Аудио 1: русский, AC3, 192 kbps, 2 ch, 48 kHz [профессиональный многоголосый, Спб, 5 канал]
Аудио 2: русский, AC3, 192 kbps, 2 ch, 48 kHz [профессиональный многоголосый, HTB+]
Аудио 3: русский, AC3, 192 kbps, 2 ch, 48 kHz [профессиональный многоголосый]
Аудио 4: русский, AC3, 192 kbps, 2 ch, 48 kHz [авторский, Сергей Визгунов]
Аудио 5: английский, AC3, 192 kbps, 2 ch, 48 kHz [оригинал]
Субтитры 1: русские (FRЕЕDОNОR RG NNM СLUВ VIDЕО)
Субтитры 2: английские
Имеются неименованные главы/чаптеры.
Общее
Уникальный идентификатор : 202850569358379378388966873552326421302 (0x989B993C4C62AE25B017D549FBF2EB36)
Полное имя : D:\Video\Джихад.1966.BDRip.1080p by msltel.mkv
Формат : Matroska
Версия формата : Version 4 / Version 2
Размер файла : 13,1 Гбайт
Продолжительность : 2 ч. 16 м.
Общий поток : 13,8 Мбит/сек
Название фильма : Rip by msltel
Дата кодирования : UTC 2017-07-12 04:01:08
Программа кодирования : mkvmerge v8.2.0 ('World of Adventure') 64bit
Библиотека кодирования : libebml v1.3.1 + libmatroska v1.4.2

Видео
Идентификатор : 1
Формат : AVC
Формат/Информация : Advanced Video Codec
Профиль формата : High@L4.1
Параметр CABAC формата : Да
Параметр ReFrames формата : 4 кадра
Идентификатор кодека : V_MPEG4/ISO/AVC
Продолжительность : 2 ч. 16 м.
Битрейт : 12,8 Мбит/сек
Ширина : 1920 пикселей
Высота : 700 пикселей
Соотношение сторон : 2,743
Режим частоты кадров : Постоянный
Частота кадров : 23,976 (24000/1001) кадра/сек
Цветовое пространство : YUV
Субдискретизация насыщенности : 4:2:0
Битовая глубина : 8 бит
Тип развёртки : Прогрессивная
Бит/(Пиксели*Кадры) : 0.399
Размер потока : 12,2 Гбайт (93%)
Библиотека кодирования : x264 core 146 r2538 121396c
Настройки программы : cabac=1 / ref=4 / deblock=1:-3:-2 / analyse=0x3:0x113 / me=umh / subme=11 / psy=1 / psy_rd=1.00:0.15 / mixed_ref=1 / me_range=32 / chroma_me=1 / trellis=2 / 8x8dct=1 / cqm=0 / deadzone=21,11 / fast_pskip=0 / chroma_qp_offset=-3 / threads=6 / lookahead_threads=1 / sliced_threads=0 / nr=0 / decimate=1 / interlaced=0 / bluray_compat=0 / constrained_intra=0 / bframes=11 / b_pyramid=2 / b_adapt=2 / b_bias=0 / direct=1 / weightb=1 / open_gop=0 / weightp=2 / keyint=230 / keyint_min=23 / scenecut=40 / intra_refresh=0 / rc_lookahead=40 / rc=crf / mbtree=0 / crf=22.0 / qcomp=0.60 / qpmin=0 / qpmax=69 / qpstep=4 / vbv_maxrate=62500 / vbv_bufsize=78125 / crf_max=0.0 / nal_hrd=none / filler=0 / ip_ratio=1.40 / pb_ratio=1.30 / aq=1:1.00
Язык : English
Default : Да
Forced : Нет

Аудио #1
Идентификатор : 2
Формат : AC-3
Формат/Информация : Audio Coding 3
Параметр Endianness формата : Big
Идентификатор кодека : A_AC3
Продолжительность : 2 ч. 16 м.
Вид битрейта : Постоянный
Битрейт : 192 Кбит/сек
Каналы : 2 канала
Расположение каналов : Front: L R
Частота : 48,0 КГц
Частота кадров : 31,250 кадров/сек (1536 spf)
Битовая глубина : 16 бит
Метод сжатия : С потерями
Размер потока : 187 Мбайт (1%)
Заголовок : MVO (Спб, 5 канал)
Язык : Russian
ServiceKind/String : Complete Main
Default : Да
Forced : Нет

Аудио #2
Идентификатор : 3
Формат : AC-3
Формат/Информация : Audio Coding 3
Параметр Endianness формата : Big
Идентификатор кодека : A_AC3
Продолжительность : 2 ч. 16 м.
Вид битрейта : Постоянный
Битрейт : 192 Кбит/сек
Каналы : 2 канала
Расположение каналов : Front: L R
Частота : 48,0 КГц
Частота кадров : 31,250 кадров/сек (1536 spf)
Битовая глубина : 16 бит
Метод сжатия : С потерями
Размер потока : 187 Мбайт (1%)
Заголовок : MVO (HTB+)
Язык : Russian
ServiceKind/String : Complete Main
Default : Нет
Forced : Нет

Аудио #3
Идентификатор : 4
Формат : AC-3
Формат/Информация : Audio Coding 3
Параметр Endianness формата : Big
Идентификатор кодека : A_AC3
Продолжительность : 2 ч. 16 м.
Вид битрейта : Постоянный
Битрейт : 192 Кбит/сек
Каналы : 2 канала
Расположение каналов : Front: L R
Частота : 48,0 КГц
Частота кадров : 31,250 кадров/сек (1536 spf)
Битовая глубина : 16 бит
Метод сжатия : С потерями
Размер потока : 187 Мбайт (1%)
Заголовок : MVO
Язык : Russian
ServiceKind/String : Complete Main
Default : Нет
Forced : Нет

Аудио #4
Идентификатор : 5
Формат : AC-3
Формат/Информация : Audio Coding 3
Параметр Endianness формата : Big
Идентификатор кодека : A_AC3
Продолжительность : 2 ч. 16 м.
Вид битрейта : Постоянный
Битрейт : 192 Кбит/сек
Каналы : 2 канала
Расположение каналов : Front: L R
Частота : 48,0 КГц
Частота кадров : 31,250 кадров/сек (1536 spf)
Битовая глубина : 16 бит
Метод сжатия : С потерями
Размер потока : 187 Мбайт (1%)
Заголовок : AVO (Сергей Визгунов)
Язык : Russian
ServiceKind/String : Complete Main
Default : Нет
Forced : Нет

Аудио #5
Идентификатор : 6
Формат : AC-3
Формат/Информация : Audio Coding 3
Параметр Endianness формата : Big
Идентификатор кодека : A_AC3
Продолжительность : 2 ч. 16 м.
Вид битрейта : Постоянный
Битрейт : 192 Кбит/сек
Каналы : 2 канала
Расположение каналов : Front: L R
Частота : 48,0 КГц
Частота кадров : 31,250 кадров/сек (1536 spf)
Битовая глубина : 16 бит
Метод сжатия : С потерями
Размер потока : 187 Мбайт (1%)
Заголовок : original
Язык : English
ServiceKind/String : Complete Main
Default : Нет
Forced : Нет

Текст #1
Идентификатор : 7
Формат : UTF-8
Идентификатор кодека : S_TEXT/UTF8
Идентификатор кодека/Информация : UTF-8 Plain Text
Продолжительность : 2 ч. 7 м.
Битрейт : 83 бит/сек
ElementCount : 1220
Размер потока : 77,8 Кбайт (0%)
Заголовок : русские (FRЕЕDОNОR RG NNM СLUВ VIDЕО)
Язык : Russian
Default : Нет
Forced : Нет

Текст #2
Идентификатор : 8
Формат : UTF-8
Идентификатор кодека : S_TEXT/UTF8
Идентификатор кодека/Информация : UTF-8 Plain Text
Продолжительность : 2 ч. 6 м.
Битрейт : 54 бит/сек
ElementCount : 1345
Размер потока : 51,0 Кбайт (0%)
Заголовок : английские
Язык : English
Default : Нет
Forced : Нет

Меню
00:00:00.000 : :Chapter 01
00:06:17.293 : :Chapter 02
00:17:29.214 : :Chapter 03
00:27:55.507 : :Chapter 04
00:38:10.621 : :Chapter 05
00:50:35.699 : :Chapter 06
01:04:44.213 : :Chapter 07
01:21:28.216 : :Chapter 08
01:37:26.966 : :Chapter 09
01:50:30.165 : :Chapter 10
02:05:31.941 : :Chapter 11
02:13:54.568 : :Chapter 12
02:16:10.370 : :Chapter 13
pb.wtf



Скачать Джихад через торрент http://i062.radikal.ru/1707/99/c1b4196b82b2.jpg Скачать фильм Джихад через торрент бесплантно в хорошем качестве Описание: Масштабное столкновение между английским генералом Чарльзом Гордоном и объявившим чуждым пришельцам-захватчикам священную войну ... 10 10 2
Info! Золотая раздача, скачанное не засчитывается.
Торрент: Зарегистрирован [2017-07-12 08:28] · скачан: 13 раз
Статус: √ проверено
Размер: 13.13 GB
Как cкачать? Как скачать Джихад через торрент | qTorrent

% Раздел Тема Автор DL S | L
Фильмы [HD 720p, 1080p] (Хороший звук DUB, MVO) [ 4.88 GB ] Джихад / Khartoum [1966 военный история BDRip 720p by msltel] 3 x MVO AVO msltel Скачать
1 | 0

28-11-2019 20:33  

Отключить всю рекламу на сайте

    Дорогой пользователь! Огромная просьба, поблагодарите релизера, оцените раздачу и оставьте свои комментарий, если Вы скачали Джихад через торрент бесплатно! Внесите свою лепту в развитие PiratBit!
    Комментировать посты могут только пользователи прошедшие не сложную регистрацию
    Показать сообщения:    

    Джихад через торрент
    Скачать бесплатно Джихад
    Джихад скачать торрент
    Джихад смотреть онлайн
    Cкачать фильм Джихад бесплатно
    Джихад скачать торрент в хорошем качестве
    Джихад смотреть онлайн бесплатно в хорошем качестве


    Вы не можете начинать темы
    Вы не можете отвечать на сообщения
    Вы не можете редактировать свои сообщения
    Вы не можете удалять свои сообщения
    Вы не можете голосовать в опросах
    Вы не можете прикреплять файлы к сообщениям
    Вы можете скачивать файлы