2 сезон

iTunes

1 сезон

1

iTunes

iTunes

iTunes

1 сезон

RePack

30

ИГРА 18+

pack

ВАЖНО

!!Акция!!

Alien_RageХит недели

RePack

MK11
pack

Забери бонус

RePack

jed

!!Акция!!

Alien_Rage

RePack

fifa19

RePack

Assassins Creed: Odyssey

RePack

NEED FOR SPEED™ PAYBACK

4 сезон

9 сезон

Бесстыжие 9 сезон

Все сериалы

все сериалы на PB.wtf

RePack

FAR CRY 5
  

Проснись и убей / Svegliati e uccidi (Карло Лиццани) [1966, драма, криминал, биография, BDRip 720p by msltel] DVO pb.wtf

Проснись и убей через торрент pb.wtf

Размер: 5.18 GB | Добавлен: 3 года 3 мес. назад | Торрент скачан:13 раз
Скачать  

12-07-2017 12:05 Проснись и убей Скачать торрент  

Название: Проснись и убей
Оригинальное название: Svegliati e uccidi
Год выпуска: 1966
Страна: Италия, Франция
Жанр: драма, криминал, биография
Продолжительность: 01:37:38
Перевод: рофессиональный двухголосый

Режиссер: Карло Лиццани
В ролях: Роберт Хоффманн, Джан Мария Волонте, Клаудио Камазо, Ренато Николаи, Оттавио Фанфани, Пупо Де Люка, Коррадо Ольми, Лиза Гастони, Августо Бонарди, Ренато Терра, Эмилио Делле Пьяне, Роберто Мальдера, Пьеро Бутарелли, Рита Риччиарелли, Марко Мариани, Мариса Розалес, Марио Моралес

Описание: Фильм о похождениях международного вора Лучиано Лутринга. Этот человек маниакальный вор, любитель выбить витрину в магазине и, схватив драгоценности, бежать в людное место и затеряться в толпе. Полиция никак не может его поймать. После нескольких крупных афёр Лучиано и его подруга Ивонн бегут в Париж. Их преследует итальянский инспектор полиции Морони. В Париже дела не ладятся, украденные вещи не хочет покупать ни один мафиози, а Ивонн начинает сотрудничать с Морони, чтобы спасти жизнь мужа. В обмен на информацию о его местонахождении и дальнейших планах она просит взять его живым. Узнав это, Лучиано приходит в ярость и жестоко избивает свою возлюбленную, и не один раз. В конце концов, Морони объединяется с французской полицией, и они придумывают план поимки преступника...



Качество: BDRip 720p
Формат: MKV
Видео: MPEG-4 AVC, 7204 Кбит/с, 1280x690, 24 кадр/с
Аудио 1: русский, AC3, 192 kbps, 2 ch [профессиональный двухголосый, т/к "Культура"]
Аудио 2: английский, AC3, 192 kbps, 2 ch, 48 kHz [оригинал]
Субтитры: английские
Имеются неименованные главы/чаптеры.
Общее
Уникальный идентификатор : 174342507912792744715489732831696542639 (0x83292549C4F6FA1BB366F38B496A5BAF)
Полное имя : D:\Video\Проснись и убей.1966.BDRip.720p by msltel.mkv
Формат : Matroska
Версия формата : Version 4 / Version 2
Размер файла : 5,18 Гбайт
Продолжительность : 1 ч. 37 м.
Общий поток : 7591 Кбит/сек
Дата кодирования : UTC 2017-07-11 13:59:37
Программа кодирования : mkvmerge v8.2.0 ('World of Adventure') 64bit
Библиотека кодирования : libebml v1.3.1 + libmatroska v1.4.2

Видео
Идентификатор : 1
Формат : AVC
Формат/Информация : Advanced Video Codec
Профиль формата : High@L4.1
Параметр CABAC формата : Да
Параметр ReFrames формата : 9 кадров
Идентификатор кодека : V_MPEG4/ISO/AVC
Продолжительность : 1 ч. 37 м.
Битрейт : 7204 Кбит/сек
Ширина : 1280 пикселей
Высота : 690 пикселей
Соотношение сторон : 1,85:1
Режим частоты кадров : Постоянный
Частота кадров : 24,000 кадра/сек
Цветовое пространство : YUV
Субдискретизация насыщенности : 4:2:0
Битовая глубина : 8 бит
Тип развёртки : Прогрессивная
Бит/(Пиксели*Кадры) : 0.340
Размер потока : 4,91 Гбайт (95%)
Библиотека кодирования : x264 core 146 r2538 121396c
Настройки программы : cabac=1 / ref=9 / deblock=1:-3:-2 / analyse=0x3:0x113 / me=umh / subme=11 / psy=1 / psy_rd=1.00:0.15 / mixed_ref=1 / me_range=32 / chroma_me=1 / trellis=2 / 8x8dct=1 / cqm=0 / deadzone=21,11 / fast_pskip=0 / chroma_qp_offset=-3 / threads=6 / lookahead_threads=1 / sliced_threads=0 / nr=0 / decimate=1 / interlaced=0 / bluray_compat=0 / constrained_intra=0 / bframes=13 / b_pyramid=2 / b_adapt=2 / b_bias=0 / direct=1 / weightb=1 / open_gop=0 / weightp=2 / keyint=230 / keyint_min=23 / scenecut=40 / intra_refresh=0 / rc_lookahead=40 / rc=crf / mbtree=0 / crf=22.0 / qcomp=0.60 / qpmin=0 / qpmax=69 / qpstep=4 / vbv_maxrate=62500 / vbv_bufsize=78125 / crf_max=0.0 / nal_hrd=none / filler=0 / ip_ratio=1.40 / pb_ratio=1.30 / aq=1:1.00
Язык : English
Default : Да
Forced : Нет

Аудио #1
Идентификатор : 2
Формат : AC-3
Формат/Информация : Audio Coding 3
Параметр Endianness формата : Big
Идентификатор кодека : A_AC3
Продолжительность : 1 ч. 37 м.
Вид битрейта : Постоянный
Битрейт : 192 Кбит/сек
Каналы : 2 канала
Расположение каналов : Front: L R
Частота : 48,0 КГц
Частота кадров : 31,250 кадров/сек (1536 spf)
Битовая глубина : 16 бит
Метод сжатия : С потерями
Размер потока : 134 Мбайт (3%)
Заголовок : DVO (т/к "Культура")
Язык : Russian
ServiceKind/String : Complete Main
Default : Да
Forced : Нет

Аудио #2
Идентификатор : 3
Формат : AC-3
Формат/Информация : Audio Coding 3
Параметр Endianness формата : Big
Идентификатор кодека : A_AC3
Продолжительность : 1 ч. 37 м.
Вид битрейта : Постоянный
Битрейт : 192 Кбит/сек
Каналы : 2 канала
Расположение каналов : Front: L R
Частота : 48,0 КГц
Частота кадров : 31,250 кадров/сек (1536 spf)
Битовая глубина : 16 бит
Метод сжатия : С потерями
Размер потока : 134 Мбайт (3%)
Заголовок : original
Язык : English
ServiceKind/String : Complete Main
Default : Нет
Forced : Нет

Текст
Идентификатор : 4
Формат : UTF-8
Идентификатор кодека : S_TEXT/UTF8
Идентификатор кодека/Информация : UTF-8 Plain Text
Продолжительность : 1 ч. 37 м.
Битрейт : 63 бит/сек
ElementCount : 1176
Размер потока : 44,9 Кбайт (0%)
Заголовок : английский
Язык : English
Default : Нет
Forced : Нет

Меню
00:00:00.000 : :Chapter 01
00:08:13.040 : :Chapter 02
00:14:48.958 : :Chapter 03
00:22:33.083 : :Chapter 04
00:30:36.125 : :Chapter 05
00:37:55.208 : :Chapter 06
00:47:36.708 : :Chapter 07
00:58:23.250 : :Chapter 08
01:08:47.500 : :Chapter 09
01:16:45.457 : :Chapter 10
01:24:06.000 : :Chapter 11
01:32:00.875 : :Chapter 12
pb.wtf



Скачать Проснись и убей через торрент http://picplus.ru/img/1707/12/ffd07009.jpg Скачать фильм Проснись и убей через торрент бесплантно в хорошем качестве Описание: Фильм о похождениях международного вора Лучиано Лутринга. Этот человек маниакальный вор, любитель выбить витрину в магазине и, ... 7 10 3
Info! Золотая раздача, скачанное не засчитывается.
Торрент: Зарегистрирован [2017-07-12 12:05] · скачан: 13 раз
Статус: √ проверено
Размер: 5.18 GB
Как cкачать? Как скачать Проснись и убей через торрент | qTorrent

% Раздел Тема Автор DL S | L
Фильмы [HD 720p, 1080p] (Хороший звук DUB, MVO) [ 12.59 GB ] Проснись и убей / Svegliati e uccidi [1966 биография BDRip 1080p by msltel] DVO msltel Скачать
1 | 0

28-11-2019 20:33  

Отключить всю рекламу на сайте

    Дорогой пользователь! Огромная просьба, поблагодарите релизера, оцените раздачу и оставьте свои комментарий, если Вы скачали Проснись и убей через торрент бесплатно! Внесите свою лепту в развитие PiratBit!
    Комментировать посты могут только пользователи прошедшие не сложную регистрацию
    Показать сообщения:    

    Проснись и убей через торрент
    Скачать бесплатно Проснись и убей
    Проснись и убей скачать торрент
    Проснись и убей смотреть онлайн
    Cкачать фильм Проснись и убей бесплатно
    Проснись и убей скачать торрент в хорошем качестве
    Проснись и убей смотреть онлайн бесплатно в хорошем качестве


    Вы не можете начинать темы
    Вы не можете отвечать на сообщения
    Вы не можете редактировать свои сообщения
    Вы не можете удалять свои сообщения
    Вы не можете голосовать в опросах
    Вы не можете прикреплять файлы к сообщениям
    Вы можете скачивать файлы