Ссылка на приватное зеркало нашего сайта всего за 1$. Внимание количество ограничено!!!

2 сезон

iTunes

1 сезон

1

2 сезон

2 сезон

iTunes

1 сезон

RePack

30

Ultimate

ВАЖНО

ИГРА 18+

pack

RePack

MK11
pack

Забери бонус

RePack

jed

!!Акция!!

Alien_Rage

RePack

fifa19

RePack

Assassins Creed: Odyssey

RePack

NEED FOR SPEED™ PAYBACK

4 сезон

9 сезон

Бесстыжие 9 сезон

Все сериалы

все сериалы на PB.wtf

RePack

FAR CRY 5
  

Перестрелка / Free Fire (Бен Уитли) [2016, Боевик, триллер, BD Remux 1080p] DUB [iTunes] pb.wtf

Перестрелка через торрент pb.wtf

Размер: 16.8 GB | Добавлен: 3 года 4 мес. назад | Торрент скачан:72 раза
Скачать  

12-07-2017 13:55 Перестрелка Скачать торрент  

Перестрелка / Free Fire
Год выпуска: 2016
Страна: Великобритания
Жанр: Боевик, триллер
Продолжительность: 01:30:34
Перевод: Дубляж [iTunes]
Субтитры: английские

Режиссер: Бен Уитли

rating

В ролях:

Энцо Чиленти, Сэм Райли, Майкл Смайли, Бри Ларсон, Киллиан Мёрфи, Арми Хаммер, Шарлто Копли, Бабу Сизей, Ноа Тейлор, Джек Рейнор

Описание:

Когда подпольная сделка по продаже оружия феерически летит под откос, целый склад превращается в масштабное поле битвы. Слова закончились, и заговорили стволы. Приз в игре на выживание — кейс с большой суммой денег, но унести его не так просто. Здесь вооружены все, каждый сам за себя, а хаос правит бал.

Качество: BD Remux 1080p
Формат: MKV
Видео кодек: H.264
Аудио кодек: AC3/DTS-HD MA

Видео: MPEG-4 AVC, 1920x1080, 22.5 Mbit/s, 23.976 fps
Аудио#1: 48 kHz, AC3, 5.1, 384 Kbps | RUS |
Аудио#2: 48 kHz, DTS-HD MA, 5.1, 3720 Kbps | ENG |
скриншот   скриншот   скриншот   скриншот   скриншот  

General
Unique ID : 214100053088940391457719636411773340716 (0xA1122B9B0071753EA5238FAFF713CC2C)
Complete name : F:VideoFree.Fire.2016.D.BDREMUX.1080p.ExKinoRay.mkv
Format : Matroska
Format version : Version 4 / Version 2
File size : 16.8 GiB
Duration : 1 h 30 min
Overall bit rate mode : Variable
Overall bit rate : 26.6 Mb/s
Encoded date : UTC 2017-07-09 23:27:57
Writing application : mkvmerge v13.0.0 ('The Juggler') 64bit
Writing library : libebml v1.3.4 + libmatroska v1.4.5

Video
ID : 1
Format : AVC
Format/Info : Advanced Video Codec
Format profile : High@L4.1
Format settings, CABAC : Yes
Format settings, ReFrames : 4 frames
Codec ID : V_MPEG4/ISO/AVC
Duration : 1 h 30 min
Bit rate mode : Variable
Bit rate : 22.5 Mb/s
Maximum bit rate : 37.0 Mb/s
Width : 1 920 pixels
Height : 1 080 pixels
Display aspect ratio : 16:9
Frame rate mode : Constant
Frame rate : 23.976 (24000/1001) FPS
Color space : YUV
Chroma subsampling : 4:2:0
Bit depth : 8 bits
Scan type : Progressive
Bits/(Pixel*Frame) : 0.452
Stream size : 14.2 GiB (85%)
Language : English
Default : Yes
Forced : No

Audio #1
ID : 2
Format : AC-3
Format/Info : Audio Coding 3
Format settings, Endianness : Big
Codec ID : A_AC3
Duration : 1 h 30 min
Bit rate mode : Constant
Bit rate : 384 kb/s
Channel(s) : 6 channels
Channel positions : Front: L C R, Side: L R, LFE
Sampling rate : 48.0 kHz
Frame rate : 31.250 FPS (1536 spf)
Bit depth : 16 bits
Compression mode : Lossy
Stream size : 248 MiB (1%)
Title : iTunes
Language : Russian
Service kind : Complete Main
Default : Yes
Forced : No

Audio #2
ID : 3
Format : DTS
Format/Info : Digital Theater Systems
Format profile : MA / Core
Mode : 16
Format settings, Endianness : Big
Codec ID : A_DTS
Duration : 1 h 30 min
Bit rate mode : Variable / Constant
Bit rate : 3 720 kb/s / 1 509 kb/s
Channel(s) : 6 channels
Channel positions : Front: L C R, Side: L R, LFE
Sampling rate : 48.0 kHz
Frame rate : 93.750 FPS (512 spf)
Bit depth : 24 bits
Compression mode : Lossless / Lossy
Stream size : 2.35 GiB (14%)
Title : Original
Language : English
Default : No
Forced : No

Text
ID : 4
Format : UTF-8
Codec ID : S_TEXT/UTF8
Codec ID/Info : UTF-8 Plain Text
Duration : 1 h 25 min
Bit rate : 110 b/s
Count of elements : 1463
Stream size : 68.6 KiB (0%)
Title : SDH (Colored)
Language : English
Default : No
Forced : No

Menu
00:00:00.000 : en:Chapter 1
00:07:31.368 : en:Chapter 2
00:09:32.655 : en:Chapter 3
00:15:12.036 : en:Chapter 4
00:20:35.693 : en:Chapter 5
00:27:40.867 : en:Chapter 6
00:32:48.300 : en:Chapter 7
00:37:54.022 : en:Chapter 8
00:43:09.795 : en:Chapter 9
00:48:48.008 : en:Chapter 10
00:54:27.639 : en:Chapter 11
00:59:18.096 : en:Chapter 12
01:05:36.432 : en:Chapter 13
01:09:08.102 : en:Chapter 14
01:15:16.887 : en:Chapter 15
01:22:35.117 : en:Chapter 16

pb.wtf



Скачать Перестрелка через торрент http://s019.radikal.ru/i613/1707/bd/08fee085d767.jpg Скачать фильм Перестрелка через торрент бесплантно в хорошем качестве Описание: Когда подпольная сделка по продаже оружия феерически летит под откос, целый склад превращается в масштабное поле битвы. Слова ... 10 10 5
Info! Золотая раздача, скачанное не засчитывается.
Торрент: Зарегистрирован [2017-07-12 13:55] · скачан: 72 раз
Статус: √ проверено
Размер: 16.8 GB
Как cкачать? Как скачать Перестрелка через торрент | qTorrent

% Раздел Тема Автор DL S | L
Фильмы 2016 [DVDrip, WEB-DLRip, HDrip] (DUB, MVO) [ 1.46 GB ] Перестрелка / Free Fire [2016 BDRip] - [] Twi7ter Скачать
2 | 0
Фильмы 2016 [DVDrip, WEB-DLRip, HDrip] (DUB, MVO) [ 712 MB ] Перестрелка / Free Fire [2016 HDRip "BD RUS"] coc900 Скачать
1 | 0
Фильмы 2016 [DVDrip, WEB-DLRip, HDrip] (DUB, MVO) [ 1.79 GB ] Перестрелка / Free Fire [2016 BDRip-AVC] DUB [] bober100 Скачать
1 | 0
Фильмы без перевода [ 16.59 GB ] Перестрелка / Free Fire [2016 BDRemux] [Оригинал-ENG] smaster Скачать
1 | 0
Фильмы [HD 720p, 1080p] (Хороший звук DUB, MVO) [ 7.22 GB ] Перестрелка / Free Fire [2016 BDRip 1080p] bober100 Скачать
1 | 0
Фильмы [HD 720p, 1080p] (Хороший звук DUB, MVO) [ 3.78 GB ] Перестрелка / Free Fire [2016 BDRip 720p] bober100 Скачать
1 | 0
Фильмы (WEB-DL 720p, 1080p) [ 2.62 GB ] Перестрелка / Free Fire [2016 WEB-DL 720p] bober100 Скачать
1 | 0

28-11-2019 20:33  

Отключить всю рекламу на сайте

    Дорогой пользователь! Огромная просьба, поблагодарите релизера, оцените раздачу и оставьте свои комментарий, если Вы скачали Перестрелка через торрент бесплатно! Внесите свою лепту в развитие PiratBit!
    Комментировать посты могут только пользователи прошедшие не сложную регистрацию
    Показать сообщения:    

    Перестрелка через торрент
    Скачать бесплатно Перестрелка
    Перестрелка скачать торрент
    Перестрелка смотреть онлайн
    Cкачать фильм Перестрелка бесплатно
    Перестрелка скачать торрент в хорошем качестве
    Перестрелка смотреть онлайн бесплатно в хорошем качестве


    Вы не можете начинать темы
    Вы не можете отвечать на сообщения
    Вы не можете редактировать свои сообщения
    Вы не можете удалять свои сообщения
    Вы не можете голосовать в опросах
    Вы не можете прикреплять файлы к сообщениям
    Вы можете скачивать файлы