Ссылка на приватное зеркало нашего сайта всего за 1$. Внимание количество ограничено!!!

2 сезон

iTunes

1 сезон

1

2 сезон

2 сезон

iTunes

1 сезон

RePack

30

Новинка

ВАЖНО

ИГРА 18+

pack

RePack

MK11
pack

Забери бонус

RePack

jed

!!Акция!!

Alien_Rage

RePack

fifa19

RePack

Assassins Creed: Odyssey

RePack

NEED FOR SPEED™ PAYBACK

4 сезон

9 сезон

Бесстыжие 9 сезон

Все сериалы

все сериалы на PB.wtf

RePack

FAR CRY 5
  

Уилл / Will / Сезон 1 / Серии 1-3 из 10 (Шекхар Капур, Эллиотт Лестер, Крэйг Пирс) [2017, драма, WEBRip] MVO [LostFilm] pb.wtf

Уилл через торрент pb.wtf

Размер: 1.97 GB | Добавлен: 3 года 3 мес. назад | Торрент скачан:1 раз
Скачать  

13-07-2017 13:12 Уилл Скачать торрент  

Уилл / Will
Год выпуска: 2017
Страна: США
Жанр: драма
Продолжительность: 3 x ~ 00:55:00
Перевод: Профессиональный многоголосый -
Субтитры: отсутствуют

Режиссер: Шекхар Капур, Эллиотт Лестер, Крэйг Пирс

rating

В ролях:

Лори Дэвидсон, Оливия ДеДжонг, Джордж Сиа, Макс Беннетт, Джасмин Савой Браун, Тайг Мерфи, Джек Брэйди

Описание:

Это дикая история появления молодого Уильяма Шекспира на сцене панк-рок-театра, которым являлся Лондон XVI столетия. Представьте себе соблазнительный, жестокий мир, в котором оказывается молодой талант с необузданной аудиторией, влиятельными религиозными фанатиками и непрерывными шумными аттракционами. Это горячая, современная, провокационная версия жизни Шекспира, поданная в обрамлении саундтреков наших дней, откровенно показывающая всё его безрассудство, блеск и податливость похотливым соблазнам.

Качество: WEBRip
Формат: AVI
Видео кодек: XviD
Аудио кодек: MP3

Видео: 720x400 (1.76:1), 25 fps, XviD ~1550 kbps avg, 0.225 bit/pixel
Аудио#1: 48 kHz, MPEG Layer 3, 2 ch, ~128.00 kbps avg
скриншот   скриншот   скриншот   скриншот  

Общее
Полное имя : D:\Will\Will.s01e01.LostFilm.avi
Формат : AVI
Формат/Информация : Audio Video Interleave
Размер файла : 701 Мбайт
Продолжительность : 57 м. 55 с.
Общий поток : 1691 Кбит/сек
Программа кодирования : VirtualDubMod 1.5.10.3 | www.virtualdub-fr.org || (build 2550/release)
Библиотека кодирования : VirtualDubMod build 2550/release

Видео
Идентификатор : 0
Формат : MPEG-4 Visual
Профиль формата : Advanced Simple@L5
Параметр BVOP формата : 1
Параметр QPel формата : Нет
Параметр GMC формата : Без точки перехода
Параметр матрицы формата : Default (MPEG)
Идентификатор кодека : XVID
Идентификатор кодека/Подсказка : XviD
Продолжительность : 57 м. 55 с.
Битрейт : 1553 Кбит/сек
Ширина : 720 пикселей
Высота : 400 пикселей
Соотношение сторон : 16:9
Частота кадров : 23,976 (23976/1000) кадра/сек
Цветовое пространство : YUV
Субдискретизация насыщенности : 4:2:0
Битовая глубина : 8 бит
Тип развёртки : Прогрессивная
Метод сжатия : С потерями
Бит/(Пиксели*Кадры) : 0.225
Размер потока : 644 Мбайт (92%)
Библиотека кодирования : XviD 1.2.1 (UTC 2008-12-04)

Аудио
Идентификатор : 1
Формат : MPEG Audio
Версия формата : Version 1
Профиль формата : Layer 3
Режим : Joint stereo
Расширение режима : MS Stereo
Идентификатор кодека : 55
Идентификатор кодека/Подсказка : MP3
Продолжительность : 57 м. 55 с.
Вид битрейта : Постоянный
Битрейт : 128 Кбит/сек
Каналы : 2 канала
Частота : 48,0 КГц
Метод сжатия : С потерями
Размер потока : 53,0 Мбайт (8%)
Выравнивание : Соединение по промежуткам
Продолжительность промежутка : 42 мс. (1,00 видеокадр)
Время предзагрузки промежутка : 504 мс.
Библиотека кодирования : LAME3.99r
Настройки программы : -m j -V 4 -q 2 -lowpass 17 -b 128

pb.wtf



Скачать Уилл через торрент http://img11.lostpic.net/2017/07/13/cdd799f30bd6a2f2d80e318b7dd87bfa.jpg Скачать фильм Уилл через торрент бесплантно в хорошем качестве Описание: Это дикая история появления молодого Уильяма Шекспира на сцене панк-рок-театра, которым являлся Лондон XVI столетия. Представьте ... 10 10 3
Торрент: Зарегистрирован [2017-07-25 19:56] · скачан: 1 раз
Статус: √ проверено
Размер: 1.97 GB
Как cкачать? Как скачать Уилл через торрент | qTorrent

28-11-2019 20:33  

Отключить всю рекламу на сайте

    Дорогой пользователь! Огромная просьба, поблагодарите релизера, оцените раздачу и оставьте свои комментарий, если Вы скачали Уилл через торрент бесплатно! Внесите свою лепту в развитие PiratBit!
    Комментировать посты могут только пользователи прошедшие не сложную регистрацию
    Показать сообщения:    

    Уилл через торрент
    Скачать бесплатно Уилл
    Уилл скачать торрент
    Уилл смотреть онлайн
    Cкачать фильм Уилл бесплатно
    Уилл скачать торрент в хорошем качестве
    Уилл смотреть онлайн бесплатно в хорошем качестве


    Вы не можете начинать темы
    Вы не можете отвечать на сообщения
    Вы не можете редактировать свои сообщения
    Вы не можете удалять свои сообщения
    Вы не можете голосовать в опросах
    Вы не можете прикреплять файлы к сообщениям
    Вы можете скачивать файлы