Ссылка на приватное зеркало нашего сайта всего за 1$. Внимание количество ограничено!!!

2 сезон

iTunes

1 сезон

1

iTunes

iTunes

iTunes

1 сезон

RePack

30

ИГРА 18+

pack

ВАЖНО

!!Акция!!

Alien_RageХит недели

RePack

MK11
pack

Забери бонус

RePack

jed

!!Акция!!

Alien_Rage

RePack

fifa19

RePack

Assassins Creed: Odyssey

RePack

NEED FOR SPEED™ PAYBACK

4 сезон

9 сезон

Бесстыжие 9 сезон

Все сериалы

все сериалы на PB.wtf

RePack

FAR CRY 5
  

Красные горы / Серии 12 из 12 (Игорь Зайцев) [2013, Боевик, военный, исторический, WEBRip] pb.wtf

Красные горы через торрент pb.wtf

Размер: 4.37 GB | Добавлен: 3 года 3 мес. назад | Торрент скачан:293 раза
Скачать  

13-07-2017 18:58 Красные горы Скачать торрент  

Красные горы
Год выпуска: 2013
Страна: Россия
Жанр: Боевик, военный, исторический
Продолжительность: 12 x ~ 00:46:00
Субтитры: отсутствуют

Режиссер: Игорь Зайцев



В ролях:

Евгений Цыганов, Алексей Бардуков, Мария Кожевникова, Павел Деревянко, Евгений Дятлов, Борис Каморзин, Елизавета Арзамасова, Максим Коновалов, Дмитрий Щербина, Андрей Мерзликин, Александр Коршунов, Светлана Фролова, Бату Хасиков, Иван Оранский, Андрюс Паулавичюс, Максим Артамонов, Денис Кирис, Виктор Тереля, Ярослав Леонов, Пётр Томашевский, Роман Македонский, Иван Шмаков

Описание:

Владивосток, 1920 год. Чтобы уцелеть в вихре гражданской войны, мальчишки из разных миров, простой пацан Илья, воспитанный офицером японского гарнизона, и кадет Аркадий, сын белогвардейского полковника, выдают себя за братьев. Но отнюдь не братское чувство будет помогать им искать свой путь в полные надежд, обретений и разочарований 1920-ые и 1930-ые. Сначала оба влюбятся в Женю, дочь красного командира, а позже они, как и когда-то, и вовсе окажутся по разные стороны баррикад: Аркадий пойдет на сделку с фашистами, а Илья будет бороться с немцами, даже оказавшись в концлагере...

Качество: WEBRip
Формат: AVI
Видео кодек: XviD
Аудио кодек: MP3

Видео: XviD build 73, 688x384 (16:9), 25.000 fps, ~ 990 Kbps (~ 0.150 bit/pixel)
Аудио#1: 48.0 kHz, MP3, 2/0 ch, 128 kbps
скриншот   скриншот   скриншот   скриншот   скриншот  

Общее
Полное имя : D:\Krasnye.Gory.2013.XviD.WEB-DLRip.GeneralFilm\01.Krasnye.Gory.avi
Формат : AVI
Формат/Информация : Audio Video Interleave
Размер файла : 373 Мбайт
Продолжительность : 46 м. 13 с.
Общий поток : 1128 Кбит/сек
Программа кодирования : VirtualDubMod 1.5.10.3 | www.virtualdub-fr.org || (build 2550/release)
Библиотека кодирования : VirtualDubMod build 2550/release

Видео
Идентификатор : 0
Формат : MPEG-4 Visual
Профиль формата : Advanced Simple@L5
Параметр BVOP формата : 1
Параметр QPel формата : Нет
Параметр GMC формата : Без точки перехода
Параметр матрицы формата : Выборочная
Идентификатор кодека : XVID
Идентификатор кодека/Подсказка : XviD
Продолжительность : 46 м. 13 с.
Битрейт : 991 Кбит/сек
Ширина : 688 пикселей
Высота : 384 пикселя
Соотношение сторон : 16:9
Частота кадров : 25,000 кадров/сек
Цветовое пространство : YUV
Субдискретизация насыщенности : 4:2:0
Битовая глубина : 8 бит
Тип развёртки : Прогрессивная
Метод сжатия : С потерями
Бит/(Пиксели*Кадры) : 0.150
Размер потока : 328 Мбайт (88%)
Библиотека кодирования : XviD 73

Аудио
Идентификатор : 1
Формат : MPEG Audio
Версия формата : Version 1
Профиль формата : Layer 3
Идентификатор кодека : 55
Идентификатор кодека/Подсказка : MP3
Продолжительность : 46 м. 13 с.
Вид битрейта : Постоянный
Битрейт : 128 Кбит/сек
Каналы : 2 канала
Частота : 48,0 КГц
Метод сжатия : С потерями
Размер потока : 42,3 Мбайт (11%)
Выравнивание : Соединение по промежуткам
Продолжительность промежутка : 40 мс. (1,00 видеокадр)
Время предзагрузки промежутка : 504 мс.
Библиотека кодирования : LAME3.99r
Настройки программы : -m s -V 4 -q 0 -lowpass 17 -b 128

pb.wtf



Скачать Красные горы через торрент http://s56.radikal.ru/i154/1707/01/b3a2fe76a93a.jpg Скачать фильм Красные горы через торрент бесплантно в хорошем качестве Описание: Владивосток, 1920 год. Чтобы уцелеть в вихре гражданской войны, мальчишки из разных миров, простой пацан Илья, воспитанный ... 9.9 10 14
Info! Золотая раздача, скачанное не засчитывается.
Торрент: Зарегистрирован [2017-07-13 18:58] · скачан: 293 раз
Статус: √ проверено
Размер: 4.37 GB
Как cкачать? Как скачать Красные горы через торрент | qTorrent

% Раздел Тема Автор DL S | L
Наши сериалы [ 6.14 GB ] Красные горы SATRip [2013 военный фильм исторический фильм SATRip] lug30 Скачать
1 | 0

28-11-2019 20:33  

Отключить всю рекламу на сайте

    Дорогой пользователь! Огромная просьба, поблагодарите релизера, оцените раздачу и оставьте свои комментарий, если Вы скачали Красные горы через торрент бесплатно! Внесите свою лепту в развитие PiratBit!
    Комментировать посты могут только пользователи прошедшие не сложную регистрацию
    Показать сообщения:    

    Красные горы через торрент
    Скачать бесплатно Красные горы
    Красные горы скачать торрент
    Красные горы смотреть онлайн
    Cкачать фильм Красные горы бесплатно
    Красные горы скачать торрент в хорошем качестве
    Красные горы смотреть онлайн бесплатно в хорошем качестве


    Вы не можете начинать темы
    Вы не можете отвечать на сообщения
    Вы не можете редактировать свои сообщения
    Вы не можете удалять свои сообщения
    Вы не можете голосовать в опросах
    Вы не можете прикреплять файлы к сообщениям
    Вы можете скачивать файлы