Ссылка на приватное зеркало нашего сайта всего за 1$. Внимание количество ограничено!!!

2 сезон

iTunes

1 сезон

1

2 сезон

2 сезон

iTunes

1 сезон

RePack

30

Новинка

ВАЖНО

ИГРА 18+

pack

RePack

MK11
pack

Забери бонус

RePack

jed

!!Акция!!

Alien_Rage

RePack

fifa19

RePack

Assassins Creed: Odyssey

RePack

NEED FOR SPEED™ PAYBACK

4 сезон

9 сезон

Бесстыжие 9 сезон

Все сериалы

все сериалы на PB.wtf

RePack

FAR CRY 5
  

Спасение / Salvation / Сезон: 1 / Серии 1-13 из 13 (Хуан Карлос Фреснадильо / Juan Carlos Fresnadillo, Ник Гомез / Nick Gomez, Грег Биман / Greg Beeman) [2017 , США, фантастика, триллер, драма, WEB-DLRip-AVC] MVO [BaibaKo] pb.wtf

Спасение через торрент pb.wtf

Размер: 10.04 GB | Добавлен: 3 года 2 мес. назад | Торрент скачан:42 раза
Скачать  

14-07-2017 07:25 Спасение Скачать торрент  

Спасение / Salvation


  • Год выпуска: 2017
  • Страна: США
  • Жанр: фантастика, триллер, драма
  • Продолжительность: 00:44:30 (Серия)
  • Перевод: Профессиональный многоголосый [BaibaKo]
  • Режиссер: Хуан Карлос Фреснадильо / Juan Carlos Fresnadillo, Ник Гомез / Nick Gomez, Грег Биман / Greg Beeman
  • В ролях:

    Йен Энтони Дэйл (Harris Edwards), Деннис Буцикарис (Dr. Malcom Croft), Сантьяго Кабрера (Darius Tanz), Дженнифер Финниган (Grace Barrows), Чарли Роу (Liam Cole), Kyle Alcock (Tanz employee), Шон Аффлек (Nelson), Жаклин Байерс (Jillian), Грег Кэлдерон (Ed), Rachel Drance (Zoe), Саймон Нортвуд (Russian gunman #1), Igor Shamuilov (FSB Superior)


  • Грейс Дэрроу совмещает непростую работу пресс-секретаря Пентагона с не менее сложной ролью матери-одиночки. Жизнь Грейс переворачивается, когда аспирант Массачусетского технологического института Лиам и технический гений Дариус сообщают ей, что всего через шесть месяцев в Землю врежется астероид и всё живое на планете погибнет. Вовлечённая в секретную правительственную миссию по спасению человечества Грейс изо всех сил старается уберечь свою семью от трагических новостей и проходит через испытания, с которыми ещё никто и никогда не сталкивался.
  • Рейтинг:



  • Качество: WEB-DLRip-AVC
  • Формат: :MPEG-4
  • Видео кодек: AVC
  • Аудио кодек: AC3
  • Видео: 1024x576 (16:9), 1811 kbps, 23,976 fps, 0,128 bpp
  • Аудио №1: русский / 5.1 / 48 kHz / 384 kbps / 16 bit |[BaibaKo]|
  • Аудио №2: английский / 5.1 / 48 kHz / 384 kbps / 16 bit
  • Релиз от: GEKADOL

    Внимание! Раздача ведётся путём добавления новых серий; при каждом добавлении создаётся новый торрент. Чтобы начать докачку новой серии, пользователям необходимо сделать следующее:
    (1) остановить скачивание,
    (2) удалить старый торрент у себя из клиента (старые серии удалять не надо),
    (3) скачать новый торрент и запустить его у себя в клиенте вместо старого, при этом указать клиенту путь в старую папку куда и должно происходить скачивание новых серий.
    Ваш клиент при этом должен произвести хеширование (проверку) старой папки (если не производит сам - помогите ему сделать это), и будет докачивать только те серии которых у вас ещё нет. Старые серии при этом не удаляются, а продолжают раздаваться!
    Eсли вы уже удалили старые серии, то предотвратить повторную закачку старых серий можно, отжав галочку в соответствующих местах при запуске нового торрента. По возможности, желательно не удалять старые серии как можно дольше чтобы релизёр не столько продолжал раздавать старые серии, а смог сконцентрироваться на новых.

    General
    Complete name : F:\Спасение (Salvation)\Salvation.s01e01.WEB-DLRip-AVC.Rus.Eng.BaibaKo.tv.mp4
    Format : MPEG-4
    Format profile : Base Media
    Codec ID : isom (isom/iso2/avc1/mp41)
    File size : 823 MiB
    Duration : 44 min
    Overall bit rate : 2 584 kb/s
    Writing application : XviD4PSP 7.0.392 DAILY
    HDVideo : Yes
    encoding_info : MATROSKA / WEBM > MP4 Произвольный / H264 > X264 CBR 2000kbps HQ / AC3 > AC3 CBR 384kbps / AC3 > AC3 CBR 384kbps

    Video
    ID : 1
    Format : AVC
    Format/Info : Advanced Video Codec
    Format profile : High@L3.1
    Format settings, CABAC : Yes
    Format settings, ReFrames : 4 frames
    Codec ID : avc1
    Codec ID/Info : Advanced Video Coding
    Duration : 44 min
    Bit rate : 1 811 kb/s
    Nominal bit rate : 2 000 kb/s
    Width : 1 024 pixels
    Height : 576 pixels
    Display aspect ratio : 16:9
    Frame rate mode : Constant
    Frame rate : 23.976 (24000/1001) FPS
    Color space : YUV
    Chroma subsampling : 4:2:0
    Bit depth : 8 bits
    Scan type : Progressive
    Bits/(Pixel*Frame) : 0.128
    Stream size : 577 MiB (70%)
    Writing library : x264 core 152 r2851M ba24899
    Encoding settings : cabac=1 / ref=3 / deblock=1:-1:-1 / analyse=0x3:0x133 / me=hex / subme=7 / psy=1 / psy_rd=1.00:0.20 / mixed_ref=1 / me_range=16 / chroma_me=1 / trellis=1 / 8x8dct=1 / cqm=0 / deadzone=21,11 / fast_pskip=1 / chroma_qp_offset=-3 / threads=5 / lookahead_threads=1 / sliced_threads=0 / nr=0 / decimate=1 / interlaced=0 / bluray_compat=0 / constrained_intra=0 / bframes=3 / b_pyramid=2 / b_adapt=2 / b_bias=0 / direct=3 / weightb=1 / open_gop=0 / weightp=2 / keyint=230 / keyint_min=23 / scenecut=40 / intra_refresh=0 / rc_lookahead=40 / rc=cbr / mbtree=1 / bitrate=2000 / ratetol=1.0 / qcomp=0.60 / qpmin=0 / qpmax=69 / qpstep=4 / vbv_maxrate=2000 / vbv_bufsize=1428 / nal_hrd=none / filler=0 / ip_ratio=1.40 / aq=1:1.00

    Audio #1
    ID : 2
    Format : AC-3
    Format/Info : Audio Coding 3
    Mode extension : CM (complete main)
    Format settings, Endianness : Big
    Codec ID : ac-3
    Duration : 44 min
    Bit rate mode : Constant
    Bit rate : 384 kb/s
    Channel(s) : 6 channels
    Channel positions : Front: L C R, Side: L R, LFE
    Sampling rate : 48.0 kHz
    Frame rate : 31.250 FPS (1536 spf)
    Bit depth : 16 bits
    Compression mode : Lossy
    Stream size : 122 MiB (15%)
    Language : Russian
    Default : Yes
    Alternate group : 1

    Audio #2
    ID : 3
    Format : AC-3
    Format/Info : Audio Coding 3
    Mode extension : CM (complete main)
    Format settings, Endianness : Big
    Codec ID : ac-3
    Duration : 44 min
    Bit rate mode : Constant
    Bit rate : 384 kb/s
    Channel(s) : 6 channels
    Channel positions : Front: L C R, Side: L R, LFE
    Sampling rate : 48.0 kHz
    Frame rate : 31.250 FPS (1536 spf)
    Bit depth : 16 bits
    Compression mode : Lossy
    Stream size : 122 MiB (15%)
    Language : English
    Default : No
    Alternate group : 1



    Скриншоты:
    скриншот   скриншот   скриншот   скриншот   скриншот   скриншот   скриншот  
    скриншот  

    Раздача ведётся путём добавления новых серий. Добавлена 13 серия (22.09.2017).Просьба перекачать торрент файл.

    pb.wtf



  • Скачать Спасение через торрент http://i96.fastpic.ru/big/2017/0714/b0/54657823b7b827e019081f2b9026bab0.jpg Скачать фильм Спасение через торрент бесплантно в хорошем качестве qw.png Грейс Дэрроу совмещает непростую работу пресс-секретаря Пентагона с не менее сложной ролью матери-одиночки. Жизнь Грейс ... 9.9 10 11
    Info! Золотая раздача, скачанное не засчитывается.
    Торрент: Зарегистрирован [2017-09-22 12:02] · скачан: 42 раз
    Статус: √ проверено
    Размер: 10.04 GB
    Как cкачать? Как скачать Спасение через торрент | qTorrent

    % Раздел Тема Автор DL S | L
    Зарубежные сериалы [ 18.43 GB ] Спасение / Salvation / Сезон: 2 / Серии: 1-13 из 13 [2018 WEB-DL 1080p] MVO [Пифагор] bober100 Скачать
    1 | 0
    Зарубежные сериалы [ 21.6 GB ] Спасение / Salvation / Сезон: 1 / Серии: 1-13 из 13 [2017 WEB-DL 1080p] MVO [Пифагор] bober100 Скачать
    1 | 0
    Зарубежные сериалы [ 6.45 GB ] Спасение / Salvation / Сезон: 2 / Серии: 1-13 из 13 [2018 WEB-DLRip] MVO [Jaskier] bober100 Скачать
    2 | 0
    Зарубежные сериалы [ 9.77 GB ] Спасение / Salvation / Сезон: 2 / Серии: 1-13 из 13 [2018 WEB-DL 720p] MVO [Jaskier] bober100 Скачать
    1 | 0
    Зарубежные сериалы [ 42.92 GB ] Спасение / Salvation / Сезон: 1 / Серии 1-13 из 13 [2017 HDTVRip 1080p] [MVO] killermax2013 Скачать
    1 | 0
    Зарубежные сериалы [ 7.03 GB ] Спасение / Salvation / Сезон: 1 / Серии 1-13 из 13 [2017 HDTVRip] [MVO] killermax2013 Скачать
    2 | 0


    Последний раз редактировалось: GEKADOL (2017-09-22 12:02), всего редактировалось 16 раз(а)

    28-11-2019 20:33  

    Отключить всю рекламу на сайте

    30-07-2017 08:57 Спасение Скачать торрент  

    Чепуха местами конечно, но время убить пойдёт.
    Далее спойлер.
    Зам. министра обороны США азиат )), Пожилой физик, на ура, улепетывает от спецслужб )), Двадцати летняя дебютантка фантаст, которую ещё и публикуют в супер обложке ))).
    Ну и так далее
    pb.wtf



    02-09-2017 02:39 Спасение Скачать торрент  

    Замена 3,7,8 и 9 серии на PROPER с привычными голосами.pb.wtf



    24-09-2017 19:15 Спасение Скачать торрент  

    Что с раздачей?pb.wtf



      Дорогой пользователь! Огромная просьба, поблагодарите релизера, оцените раздачу и оставьте свои комментарий, если Вы скачали Спасение через торрент бесплатно! Внесите свою лепту в развитие PiratBit!
      Комментировать посты могут только пользователи прошедшие не сложную регистрацию
      Показать сообщения:    

      Спасение через торрент
      Скачать бесплатно Спасение
      Спасение скачать торрент
      Спасение смотреть онлайн
      Cкачать фильм Спасение бесплатно
      Спасение скачать торрент в хорошем качестве
      Спасение смотреть онлайн бесплатно в хорошем качестве


      Вы не можете начинать темы
      Вы не можете отвечать на сообщения
      Вы не можете редактировать свои сообщения
      Вы не можете удалять свои сообщения
      Вы не можете голосовать в опросах
      Вы не можете прикреплять файлы к сообщениям
      Вы можете скачивать файлы