Ссылка на приватное зеркало нашего сайта всего за 1$. Внимание количество ограничено!!!

2 сезон

iTunes

1 сезон

1

2 сезон

2 сезон

iTunes

1 сезон

RePack

30

Ultimate

ВАЖНО

ИГРА 18+

pack

RePack

MK11
pack

Забери бонус

RePack

jed

!!Акция!!

Alien_Rage

RePack

fifa19

RePack

Assassins Creed: Odyssey

RePack

NEED FOR SPEED™ PAYBACK

4 сезон

9 сезон

Бесстыжие 9 сезон

Все сериалы

все сериалы на PB.wtf

RePack

FAR CRY 5
  

Все еще король / Still the King / Сезон: 2 / Серии 1-6 из 13 (Лев Л. Спиро / Lev L. Spiro, Potsy Ponciroli, Тамра Дэвис / Tamra Davis) [2017, США, комедия, WEB-DLRip 1080p] MVO [BaibaKo] pb.wtf

Все еще король через торрент pb.wtf

Размер: 5.22 GB | Добавлен: 3 года 2 мес. назад | Торрент скачан:3 раза
Скачать  

15-07-2017 01:02 Все еще король Скачать торрент  

Все еще король / Still the King


  • Год выпуска: 2017
  • Страна: США
  • Жанр: комедия
  • Продолжительность: 00:21:00 (Серия)
  • Перевод: Профессиональный многоголосый [BaibaKo]
  • Режиссер: Лев Л. Спиро / Lev L. Spiro, Potsy Ponciroli, Тамра Дэвис / Tamra Davis
  • В ролях:

    Билли Рэй Сайрус (Vernon Brownmule), Джои Лорен Эдамс (Debbie Lynn Cooke), Трэвис Николсон (Walt), Мэдисон Исман (Charlotte), Jon Sewell (Ronnie), Лесли Дэвид Бэйкер (Curtis), Арден Майрин (Kaitlynn), Кевин П. Фарли (Mitch Doily), Джозеф Харо (Dallas), Натали Дрейфусс (Leia), Синди Луна (Carmen), Andrew Asper (Asher)


  • Комедия расскажет о похождениях бывшего кантри-певца, пьяницы и разгильдяя Вернона Брауна. После двадцати лет прозябания на задворках музыкальной индустрии, Вернон приезжает в Неваду, чтобы сделать карьеру лучшего имитатора Элвиса Пресли. Но об этом плане приходится забыть, когда Вернон устраивает пьяный дебош и врезается в здание церкви Лафлина, за что приговаривается к общественным работам. Чтобы избежать наказания, Вернону приходит в голову "гениальная идея" - выдать себя за нового пастора.
  • Рейтинг:



  • Качество: WEB-DLRip 1080p
  • Формат: :MKV
  • Видео кодек: AVC
  • Аудио кодек: AC3
  • Видео: 1920x1080 (16:9), 4891 kbps, 23,976 fps, 0,098 bpp
  • Аудио №1: русский / 2.0 / 48 kHz / 384 kbps / 16 bit |[BaibaKo]|
  • Аудио №2: английский / 2.0 / 48 kHz / 384 kbps / 16 bit
  • Релиз от: GEKADOL

    Внимание! Раздача ведётся путём добавления новых серий; при каждом добавлении создаётся новый торрент. Чтобы начать докачку новой серии, пользователям необходимо сделать следующее:
    (1) остановить скачивание,
    (2) удалить старый торрент у себя из клиента (старые серии удалять не надо),
    (3) скачать новый торрент и запустить его у себя в клиенте вместо старого, при этом указать клиенту путь в старую папку куда и должно происходить скачивание новых серий.
    Ваш клиент при этом должен произвести хеширование (проверку) старой папки (если не производит сам - помогите ему сделать это), и будет докачивать только те серии которых у вас ещё нет. Старые серии при этом не удаляются, а продолжают раздаваться!
    Eсли вы уже удалили старые серии, то предотвратить повторную закачку старых серий можно, отжав галочку в соответствующих местах при запуске нового торрента. По возможности, желательно не удалять старые серии как можно дольше чтобы релизёр не столько продолжал раздавать старые серии, а смог сконцентрироваться на новых.

    General
    Unique ID : 221657419041733135372245614117562413744 (0xA6C1AA83BF57F49D84B6632C9DD0F2B0)
    Complete name : G:\Всё ещё Король (Still the King 2)\Still.the.King.s02e02.HD1080p.WEB-DL.Rus.Eng.BaibaKo.tv.mkv
    Format : Matroska
    Format version : Version 4 / Version 2
    File size : 851 MiB
    Duration : 21 min
    Overall bit rate : 5 662 kb/s
    Encoded date : UTC 2017-07-15 00:31:55
    Writing application : mkvmerge v12.0.0 ('Trust / Lust') 64bit
    Writing library : libebml v1.3.4 + libmatroska v1.4.5

    Video
    ID : 1
    Format : AVC
    Format/Info : Advanced Video Codec
    Format profile : High@L4
    Format settings, CABAC : Yes
    Format settings, ReFrames : 4 frames
    Codec ID : V_MPEG4/ISO/AVC
    Duration : 21 min
    Bit rate : 4 892 kb/s
    Width : 1 920 pixels
    Height : 1 080 pixels
    Display aspect ratio : 16:9
    Frame rate mode : Constant
    Frame rate : 23.976 (23976/1000) FPS
    Color space : YUV
    Chroma subsampling : 4:2:0
    Bit depth : 8 bits
    Scan type : Progressive
    Bits/(Pixel*Frame) : 0.098
    Stream size : 735 MiB (86%)
    Writing library : x264 core 148
    Encoding settings : cabac=1 / ref=4 / deblock=1:0:0 / analyse=0x3:0x113 / me=umh / subme=10 / psy=1 / psy_rd=1.00:0.15 / mixed_ref=1 / me_range=32 / chroma_me=1 / trellis=2 / 8x8dct=1 / cqm=0 / deadzone=21,11 / fast_pskip=1 / chroma_qp_offset=-3 / threads=24 / lookahead_threads=6 / sliced_threads=0 / nr=0 / decimate=1 / interlaced=0 / bluray_compat=0 / constrained_intra=0 / bframes=3 / b_pyramid=0 / b_adapt=2 / b_bias=0 / direct=3 / weightb=1 / open_gop=0 / weightp=2 / keyint=48 / keyint_min=4 / scenecut=0 / intra_refresh=0 / rc_lookahead=48 / rc=crf / mbtree=1 / crf=19.0 / qcomp=0.75 / qpmin=10 / qpmax=51 / qpstep=4 / vbv_maxrate=5000 / vbv_bufsize=10000 / crf_max=0.0 / nal_hrd=none / filler=0 / ip_ratio=1.40 / aq=1:0.80
    Default : No
    Forced : No

    Audio #1
    ID : 2
    Format : AC-3
    Format/Info : Audio Coding 3
    Mode extension : CM (complete main)
    Format settings, Endianness : Big
    Codec ID : A_AC3
    Duration : 21 min
    Bit rate mode : Constant
    Bit rate : 384 kb/s
    Channel(s) : 2 channels
    Channel positions : Front: L R
    Sampling rate : 48.0 kHz
    Frame rate : 31.250 FPS (1536 spf)
    Compression mode : Lossy
    Delay relative to video : 12 ms
    Stream size : 57.7 MiB (7%)
    Language : Russian
    Default : Yes
    Forced : No

    Audio #2
    ID : 3
    Format : AC-3
    Format/Info : Audio Coding 3
    Mode extension : CM (complete main)
    Format settings, Endianness : Big
    Codec ID : A_AC3
    Duration : 21 min
    Bit rate mode : Constant
    Bit rate : 384 kb/s
    Channel(s) : 2 channels
    Channel positions : Front: L R
    Sampling rate : 48.0 kHz
    Frame rate : 31.250 FPS (1536 spf)
    Compression mode : Lossy
    Stream size : 57.7 MiB (7%)
    Language : English
    Default : No
    Forced : No



    Скриншоты:
    скриншот   скриншот   скриншот   скриншот   скриншот   скриншот   скриншот  
    скриншот  

    Раздача ведётся путём добавления новых серий. Добавлена 6 серия (01.09.2017).Просьба перекачать торрент файл.

    pb.wtf



  • Скачать Все еще король через торрент http://i96.fastpic.ru/big/2017/0715/00/0af2ecbb1f9fabac46af9fc148b77400.jpg Скачать фильм Все еще король через торрент бесплантно в хорошем качестве qw.png Комедия расскажет о похождениях бывшего кантри-певца, пьяницы и разгильдяя Вернона Брауна. После двадцати лет прозябания на ... 10 10 3
    Info! Серебряная раздача, засчитывается только 50% скачанного.
    Торрент: Зарегистрирован [2017-09-01 00:30] · скачан: 3 раз
    Статус: √ проверено
    Размер: 5.22 GB
    Как cкачать? Как скачать Все еще король через торрент | qTorrent



    Последний раз редактировалось: GEKADOL (2017-09-01 00:40), всего редактировалось 4 раз(а)

    28-11-2019 20:33  

    Отключить всю рекламу на сайте

    20-07-2017 15:34 Все еще король Скачать торрент  

    а первый сезон раздашь?pb.wtf



      Дорогой пользователь! Огромная просьба, поблагодарите релизера, оцените раздачу и оставьте свои комментарий, если Вы скачали Все еще король через торрент бесплатно! Внесите свою лепту в развитие PiratBit!
      Комментировать посты могут только пользователи прошедшие не сложную регистрацию
      Показать сообщения:    

      Все еще король через торрент
      Скачать бесплатно Все еще король
      Все еще король скачать торрент
      Все еще король смотреть онлайн
      Cкачать фильм Все еще король бесплатно
      Все еще король скачать торрент в хорошем качестве
      Все еще король смотреть онлайн бесплатно в хорошем качестве


      Вы не можете начинать темы
      Вы не можете отвечать на сообщения
      Вы не можете редактировать свои сообщения
      Вы не можете удалять свои сообщения
      Вы не можете голосовать в опросах
      Вы не можете прикреплять файлы к сообщениям
      Вы можете скачивать файлы