Ссылка на приватное зеркало нашего сайта всего за 1$. Внимание количество ограничено!!!

2 сезон

iTunes

1 сезон

1

iTunes

iTunes

iTunes

1 сезон

RePack

30

ИГРА 18+

pack

ВАЖНО

!!Акция!!

Alien_RageХит недели

RePack

MK11
pack

Забери бонус

RePack

jed

!!Акция!!

Alien_Rage

RePack

fifa19

RePack

Assassins Creed: Odyssey

RePack

NEED FOR SPEED™ PAYBACK

4 сезон

9 сезон

Бесстыжие 9 сезон

Все сериалы

все сериалы на PB.wtf

RePack

FAR CRY 5
  

Клуб ''Коттон'' / The Cotton Club (Фрэнсис Форд Коппола) [1984, драма, криминал, музыка, BDRip 720p by msltel] DUB, MVO, DVO, 4 x AVO pb.wtf

Клуб ''Коттон'' через торрент pb.wtf

Размер: 7.37 GB | Добавлен: 3 года 3 мес. назад | Торрент скачан:42 раза
Скачать  

15-07-2017 11:35 Клуб ''Коттон'' Скачать торрент  

Название: Клуб «Коттон»
Оригинальное название: The Cotton Club
Год выпуска: 1984
Страна: США
Жанр: драма, криминал, музыка
Продолжительность: 02:09:07
Перевод: дублированный, профессиональный многоголосый, профессиональный двухголосый, авторский

Режиссер: Фрэнсис Форд Коппола
В ролях: Ричард Гир, Грегори Хайнс, Николас Кейдж, Дайан Лэйн, Лонетт МакКи, Боб Хоскинс, Рон Карабатсос, Чарльз 'Хони' Коулз, Лоуренс Фишборн, Джо Даллесандро, Эд О'Росс, Джордж Кантеро, Брайан Тарантина, Брюс МакВитти, Джанкарло Эспозито, Дэмиен Лик, Билл Коббс, Джо Линн, Том Синьорелли, Пол Херман, Рэндл Мелл, Стив Виньяри, Сьюзан Мешнер, Марк Коппола, Роберт Эрл Джонс, Винсент Джероса, Чарльз Янг, Карла Эрл, Соня Хенсли, Валари Петтифорд, Кики Шепард, Марио Ван Пиблз, Джулиан Бек, Гвен Вердон, Дженнифер Грей, Телма Карпентер, Ларри Маршалл, Новелла Нельсон, Джон П. Райан, Уинонна Смит

О фильме: В искусных руках Дикси труба превращается в нечто большее, чем простой музыкальный инструмент, а женщина из обычного существа женского пола становится богиней. Дикси был единственным, кто мог пройти по скользкой дорожке между музыкой и мафией. Пока однажды не встретил в клубе «Коттон» Веру. И жизнь Дикси стала еще горячей, чем его музыка...



Качество: BDRip 720p
Формат: MKV
Видео: MPEG-4 AVC, 6119 Кбит/с, 1280х692, 23.976 кадр/с
Аудио 1: русский, AC3, 192 kbps, 2 ch, 48 kHz [дублированный]
Аудио 2: русский, AC3, 192 kbps, 2 ch, 48 kHz [профессиональный многоголосый, Спб, 5 канал]
Аудио 3: русский, AC3, 192 kbps, 2 ch, 48 kHz [профессиональный двухголосый, Екатеринбург Арт]
Аудио 4: русский, AC3, 448 kbps, 6 ch, 48 kHz [авторский, Андрей Гаврилов]
Аудио 5: русский, AC3, 448 kbps, 6 ch, 48 kHz [авторский, Вартан Дохалов]
Аудио 6: русский, AC3, 192 kbps, 2 ch, 48 kHz [авторский, Юрий Живов]
Аудио 7: русский, AC3, 192 kbps, 2 ch, 48 kHz [авторский, Алексей Михалёв]
Аудио 8: английский, AC3, 192 kbps, 2 ch, 48 kHz [оригинал]
Субтитры 1: русские
Субтитры 2: английские
Имеются неименованные главы/чаптеры.
Общее
Уникальный идентификатор : 250628343103935276757842108347382408368 (0xBC8D4359D7179259A8A4DF12AA52A4B0)
Полное имя : D:\Video\Клуб Коттон.1984.BDRip.720p by msltel.mkv
Формат : Matroska
Версия формата : Version 4 / Version 2
Размер файла : 7,37 Гбайт
Продолжительность : 2 ч. 9 м.
Общий поток : 8169 Кбит/сек
Название фильма : Rip by msltel
Дата кодирования : UTC 2017-07-15 06:29:57
Программа кодирования : mkvmerge v8.2.0 ('World of Adventure') 64bit
Библиотека кодирования : libebml v1.3.1 + libmatroska v1.4.2

Видео
Идентификатор : 1
Формат : AVC
Формат/Информация : Advanced Video Codec
Профиль формата : High@L4.1
Параметр CABAC формата : Да
Параметр ReFrames формата : 9 кадров
Идентификатор кодека : V_MPEG4/ISO/AVC
Продолжительность : 2 ч. 9 м.
Битрейт : 6119 Кбит/сек
Ширина : 1280 пикселей
Высота : 692 пикселя
Соотношение сторон : 1,85:1
Режим частоты кадров : Постоянный
Частота кадров : 23,976 (24000/1001) кадра/сек
Цветовое пространство : YUV
Субдискретизация насыщенности : 4:2:0
Битовая глубина : 8 бит
Тип развёртки : Прогрессивная
Бит/(Пиксели*Кадры) : 0.288
Размер потока : 5,52 Гбайт (75%)
Библиотека кодирования : x264 core 146 r2538 121396c
Настройки программы : cabac=1 / ref=9 / deblock=1:-3:-2 / analyse=0x3:0x113 / me=umh / subme=11 / psy=1 / psy_rd=1.00:0.15 / mixed_ref=1 / me_range=32 / chroma_me=1 / trellis=2 / 8x8dct=1 / cqm=0 / deadzone=21,11 / fast_pskip=0 / chroma_qp_offset=-3 / threads=6 / lookahead_threads=1 / sliced_threads=0 / nr=0 / decimate=1 / interlaced=0 / bluray_compat=0 / constrained_intra=0 / bframes=6 / b_pyramid=2 / b_adapt=2 / b_bias=0 / direct=1 / weightb=1 / open_gop=0 / weightp=2 / keyint=230 / keyint_min=23 / scenecut=40 / intra_refresh=0 / rc_lookahead=40 / rc=crf / mbtree=0 / crf=20.0 / qcomp=0.60 / qpmin=0 / qpmax=69 / qpstep=4 / vbv_maxrate=62500 / vbv_bufsize=78125 / crf_max=0.0 / nal_hrd=none / filler=0 / ip_ratio=1.40 / pb_ratio=1.30 / aq=1:1.00
Язык : English
Default : Да
Forced : Нет

Аудио #1
Идентификатор : 2
Формат : AC-3
Формат/Информация : Audio Coding 3
Параметр Endianness формата : Big
Идентификатор кодека : A_AC3
Продолжительность : 2 ч. 8 м.
Вид битрейта : Постоянный
Битрейт : 192 Кбит/сек
Каналы : 2 канала
Расположение каналов : Front: L R
Частота : 48,0 КГц
Частота кадров : 31,250 кадров/сек (1536 spf)
Битовая глубина : 16 бит
Метод сжатия : С потерями
Размер потока : 177 Мбайт (2%)
Заголовок : DUB
Язык : Russian
ServiceKind/String : Complete Main
Default : Да
Forced : Нет

Аудио #2
Идентификатор : 3
Формат : AC-3
Формат/Информация : Audio Coding 3
Параметр Endianness формата : Big
Идентификатор кодека : A_AC3
Продолжительность : 2 ч. 9 м.
Вид битрейта : Постоянный
Битрейт : 192 Кбит/сек
Каналы : 2 канала
Расположение каналов : Front: L R
Частота : 48,0 КГц
Частота кадров : 31,250 кадров/сек (1536 spf)
Битовая глубина : 16 бит
Метод сжатия : С потерями
Размер потока : 177 Мбайт (2%)
Заголовок : MVO (Спб, 5 канал)
Язык : Russian
ServiceKind/String : Complete Main
Default : Нет
Forced : Нет

Аудио #3
Идентификатор : 4
Формат : AC-3
Формат/Информация : Audio Coding 3
Параметр Endianness формата : Big
Идентификатор кодека : A_AC3
Продолжительность : 2 ч. 9 м.
Вид битрейта : Постоянный
Битрейт : 192 Кбит/сек
Каналы : 2 канала
Расположение каналов : Front: L R
Частота : 48,0 КГц
Частота кадров : 31,250 кадров/сек (1536 spf)
Битовая глубина : 16 бит
Метод сжатия : С потерями
Размер потока : 177 Мбайт (2%)
Заголовок : DVO (Екатеринбург Арт)
Язык : Russian
ServiceKind/String : Complete Main
Default : Нет
Forced : Нет

Аудио #4
Идентификатор : 5
Формат : AC-3
Формат/Информация : Audio Coding 3
Параметр Endianness формата : Big
Идентификатор кодека : A_AC3
Продолжительность : 2 ч. 8 м.
Вид битрейта : Постоянный
Битрейт : 448 Кбит/сек
Каналы : 6 каналов
Расположение каналов : Front: L C R, Side: L R, LFE
Частота : 48,0 КГц
Частота кадров : 31,250 кадров/сек (1536 spf)
Битовая глубина : 16 бит
Метод сжатия : С потерями
Размер потока : 413 Мбайт (5%)
Заголовок : AVO (Андрей Гаврилов)
Язык : Russian
ServiceKind/String : Complete Main
Default : Нет
Forced : Нет

Аудио #5
Идентификатор : 6
Формат : AC-3
Формат/Информация : Audio Coding 3
Параметр Endianness формата : Big
Идентификатор кодека : A_AC3
Продолжительность : 2 ч. 8 м.
Вид битрейта : Постоянный
Битрейт : 448 Кбит/сек
Каналы : 6 каналов
Расположение каналов : Front: L C R, Side: L R, LFE
Частота : 48,0 КГц
Частота кадров : 31,250 кадров/сек (1536 spf)
Битовая глубина : 16 бит
Метод сжатия : С потерями
Размер потока : 413 Мбайт (5%)
Заголовок : AVO (Вартан Дохалов)
Язык : Russian
ServiceKind/String : Complete Main
Default : Нет
Forced : Нет

Аудио #6
Идентификатор : 7
Формат : AC-3
Формат/Информация : Audio Coding 3
Параметр Endianness формата : Big
Идентификатор кодека : A_AC3
Продолжительность : 2 ч. 8 м.
Вид битрейта : Постоянный
Битрейт : 192 Кбит/сек
Каналы : 2 канала
Расположение каналов : Front: L R
Частота : 48,0 КГц
Частота кадров : 31,250 кадров/сек (1536 spf)
Битовая глубина : 16 бит
Метод сжатия : С потерями
Размер потока : 177 Мбайт (2%)
Заголовок : AVO (Юрий Живов)
Язык : Russian
ServiceKind/String : Complete Main
Default : Нет
Forced : Нет

Аудио #7
Идентификатор : 8
Формат : AC-3
Формат/Информация : Audio Coding 3
Параметр Endianness формата : Big
Идентификатор кодека : A_AC3
Продолжительность : 2 ч. 8 м.
Вид битрейта : Постоянный
Битрейт : 192 Кбит/сек
Каналы : 2 канала
Расположение каналов : Front: L R
Частота : 48,0 КГц
Частота кадров : 31,250 кадров/сек (1536 spf)
Битовая глубина : 16 бит
Метод сжатия : С потерями
Размер потока : 177 Мбайт (2%)
Заголовок : AVO (Алексей Михалёв)
Язык : Russian
ServiceKind/String : Complete Main
Default : Нет
Forced : Нет

Аудио #8
Идентификатор : 9
Формат : AC-3
Формат/Информация : Audio Coding 3
Параметр Endianness формата : Big
Идентификатор кодека : A_AC3
Продолжительность : 2 ч. 9 м.
Вид битрейта : Постоянный
Битрейт : 192 Кбит/сек
Каналы : 2 канала
Расположение каналов : Front: L R
Частота : 48,0 КГц
Частота кадров : 31,250 кадров/сек (1536 spf)
Битовая глубина : 16 бит
Метод сжатия : С потерями
Размер потока : 177 Мбайт (2%)
Заголовок : original
Язык : English
ServiceKind/String : Complete Main
Default : Нет
Forced : Нет

Текст #1
Идентификатор : 10
Формат : UTF-8
Идентификатор кодека : S_TEXT/UTF8
Идентификатор кодека/Информация : UTF-8 Plain Text
Продолжительность : 2 ч. 3 м.
Битрейт : 89 бит/сек
ElementCount : 1685
Размер потока : 81,1 Кбайт (0%)
Заголовок : русские
Язык : Russian
Default : Нет
Forced : Нет

Текст #2
Идентификатор : 11
Формат : UTF-8
Идентификатор кодека : S_TEXT/UTF8
Идентификатор кодека/Информация : UTF-8 Plain Text
Продолжительность : 1 ч. 59 м.
Битрейт : 45 бит/сек
ElementCount : 1035
Размер потока : 39,9 Кбайт (0%)
Заголовок : английские
Язык : English
Default : Нет
Forced : Нет

Меню
00:00:00.000 : en:Chapter 1
00:03:25.663 : en:Chapter 2
00:08:15.870 : en:Chapter 3
00:10:06.105 : en:Chapter 4
00:14:42.047 : en:Chapter 5
00:16:22.314 : en:Chapter 6
00:22:08.994 : en:Chapter 7
00:24:44.649 : en:Chapter 8
00:26:09.109 : en:Chapter 9
00:28:14.693 : en:Chapter 10
00:34:14.427 : en:Chapter 11
00:38:41.902 : en:Chapter 12
00:42:39.557 : en:Chapter 13
00:45:29.601 : en:Chapter 14
00:49:51.321 : en:Chapter 15
00:54:27.597 : en:Chapter 16
00:58:02.770 : en:Chapter 17
01:02:34.167 : en:Chapter 18
01:03:44.111 : en:Chapter 19
01:07:35.051 : en:Chapter 20
01:10:35.731 : en:Chapter 21
01:14:43.187 : en:Chapter 22
01:17:47.162 : en:Chapter 23
01:21:18.206 : en:Chapter 24
01:24:52.045 : en:Chapter 25
01:28:04.404 : en:Chapter 26
01:33:50.875 : en:Chapter 27
01:35:09.286 : en:Chapter 28
01:47:58.805 : en:Chapter 29
01:52:56.686 : en:Chapter 30
01:58:26.224 : en:Chapter 31
02:03:30.820 : en:Chapter 32
02:09:05.237 : en:Chapter 33
pb.wtf



Скачать Клуб ''Коттон'' через торрент http://s16.radikal.ru/i191/1707/78/6c4acb0bfda2.jpg Скачать фильм Клуб ''Коттон'' через торрент бесплантно в хорошем качестве О фильме: В искусных руках Дикси труба превращается в нечто большее, чем простой музыкальный инструмент, а женщина из обычного существа ... 5 10 1
Info! Золотая раздача, скачанное не засчитывается.
Торрент: Зарегистрирован [2017-07-15 11:35] · скачан: 42 раз
Статус: √ проверено
Размер: 7.37 GB
Как cкачать? Как скачать Клуб ''Коттон'' через торрент | qTorrent

28-11-2019 20:33  

Отключить всю рекламу на сайте

    Дорогой пользователь! Огромная просьба, поблагодарите релизера, оцените раздачу и оставьте свои комментарий, если Вы скачали Клуб ''Коттон'' через торрент бесплатно! Внесите свою лепту в развитие PiratBit!
    Комментировать посты могут только пользователи прошедшие не сложную регистрацию
    Показать сообщения:    

    Клуб ''Коттон'' через торрент
    Скачать бесплатно Клуб ''Коттон''
    Клуб ''Коттон'' скачать торрент
    Клуб ''Коттон'' смотреть онлайн
    Cкачать фильм Клуб ''Коттон'' бесплатно
    Клуб ''Коттон'' скачать торрент в хорошем качестве
    Клуб ''Коттон'' смотреть онлайн бесплатно в хорошем качестве


    Вы не можете начинать темы
    Вы не можете отвечать на сообщения
    Вы не можете редактировать свои сообщения
    Вы не можете удалять свои сообщения
    Вы не можете голосовать в опросах
    Вы не можете прикреплять файлы к сообщениям
    Вы можете скачивать файлы